<?xml version="1.0" standalone="no"?>
<!DOCTYPE svg PUBLIC "-//W3C//DTD SVG 1.1//EN" "http://www.w3.org/Graphics/SVG/1.1/DTD/svg11.dtd" >
<svg xmlns="http://www.w3.org/2000/svg">
<metadata>Generated by IcoMoon</metadata>
<defs>
<font id="icomoon" horiz-adv-x="1024">
<font-face units-per-em="1024" ascent="960" descent="-64" />
<missing-glyph horiz-adv-x="1024" />
<glyph unicode="&#x20;" horiz-adv-x="512" d="" />
<glyph unicode="&#xe900;" glyph-name="binoculars" d="M122 358v-30h60v30c0 33.084 26.916 60 60 60h30v60h-30c-66.168 0-120-53.832-120-120zM814.34 595.852l-40.716 122.148h-141.624v60h-240v-60h-141.624l-40.716-122.148c-118.202-15.726-209.66-116.39-209.66-237.852 0-132.336 108.56-240 242-240 132.336 0 240 107.664 240 240h60c0-132.336 107.664-240 240-240 133.44 0 242 107.664 242 240 0 121.462-91.458 222.126-209.66 237.852zM452 718h120v-60h-120zM242 178c-100.356 0-182 80.748-182 180s81.644 180 182 180c99.252 0 180-80.748 180-180s-80.748-180-180-180zM474.406 418c-24.2 93.682-103.698 165.362-201.448 178.008l20.666 61.992h98.376v-60h240v60h98.376l20.664-61.992c-97.75-12.644-177.248-84.326-201.448-178.008zM782 178c-99.252 0-180 80.748-180 180s80.748 180 180 180c100.356 0 182-80.748 182-180s-81.644-180-182-180zM782 478h-30v-60h30c33.084 0 60-26.916 60-60v-30h60v30c0 66.168-53.832 120-120 120z" />
<glyph unicode="&#xe901;" glyph-name="down-arrow" d="M511.996 337.673l-298.666 298.666-60.34-60.34 359.006-359.005 359.006 359.005-60.339 60.34z" />
<glyph unicode="&#xe902;" glyph-name="map" d="M512 320c-93.867 0-170.667 76.8-170.667 170.667s76.8 170.667 170.667 170.667 170.667-76.8 170.667-170.667-76.8-170.667-170.667-170.667zM512 576c-46.933 0-85.333-38.4-85.333-85.333s38.4-85.333 85.333-85.333 85.333 38.4 85.333 85.333-38.4 85.333-85.333 85.333zM512 0c-34.133 0-68.267 12.8-89.6 38.4l-179.2 179.2c-55.467 55.467-89.6 123.733-106.667 196.267-17.067 76.8-8.533 153.6 21.333 221.867 29.867 72.533 76.8 128 140.8 170.667 128 85.333 298.667 85.333 426.667 0 64-42.667 110.933-102.4 140.8-170.667 29.867-72.533 38.4-145.067 21.333-221.867-12.8-76.8-51.2-140.8-106.667-196.267l-179.2-179.2c-21.333-25.6-55.467-38.4-89.6-38.4zM512 789.333c-59.733 0-115.2-17.067-166.4-51.2-46.933-34.133-85.333-76.8-110.933-132.267-21.333-55.467-25.6-115.2-17.067-174.933 12.8-55.467 42.667-110.933 81.067-153.6l179.2-179.2c17.067-17.067 42.667-17.067 59.733 0l187.733 179.2c42.667 42.667 68.267 93.867 81.067 153.6s4.267 119.467-17.067 170.667c-25.6 59.733-64 102.4-110.933 136.533-51.2 34.133-106.667 51.2-166.4 51.2z" />
<glyph unicode="&#xe903;" glyph-name="search" d="M466.752 877.598c-211.572 0-383.917-172.345-383.917-383.918 0-211.571 172.345-384.25 383.917-384.25 90.369 0 173.48 31.668 239.167 84.25l159.917-159.833c7.668-7.36 18.1-11.892 29.59-11.892 23.616 0 42.76 19.145 42.76 42.76 0 11.469-4.515 21.884-11.866 29.563l0.015-0.016-159.917 159.917c52.626 65.788 84.333 149.027 84.333 239.5 0 211.573-172.428 383.918-384 383.918zM466.752 792.264c165.454 0 298.583-133.13 298.583-298.584s-133.129-298.916-298.583-298.916-298.583 133.462-298.583 298.916 133.129 298.584 298.583 298.584z" />
<glyph unicode="&#xe904;" glyph-name="red-flag" d="M692 960c-79.672 0-138.076-32.418-194.56-63.77-52.096-28.916-101.304-56.23-165.44-56.23-60.628 0-123.266 31.62-150 46.902v73.098h-60v-1024h60v403.088c37.558-18.136 93.23-39.088 150-39.088 79.67 0 138.078 32.418 194.56 63.77 52.096 28.916 101.306 56.23 165.44 56.23 79.542 0 162.56-54.432 163.36-54.962l46.64-31.094v552.112c-61.69 40.712-136.984 73.944-210 73.944zM842 440.914c-37.558 18.136-93.23 39.086-150 39.086-79.672 0-138.076-32.418-194.56-63.77-52.096-28.916-101.304-56.23-165.44-56.23-60.638 0-123.288 31.63-150 46.9v412.188c37.558-18.136 93.23-39.088 150-39.088 79.67 0 138.078 32.418 194.56 63.77 52.096 28.916 101.306 56.23 165.44 56.23 60.632 0 123.286-31.628 150-46.9z" />
<glyph unicode="&#xe905;" glyph-name="origami" d="M0-62.63l204.584 229.452-204.584 204.614zM244.942 211.316l210.050 231.578-226.132 213.576-208.464-220.574zM479.018 380.074l-191.602-211.238 191.602-191.628zM479.018 960h-479.018l479.018-457.266zM540.158-64h483.842l-483.842 441.914z" />
<glyph unicode="&#xe906;" glyph-name="home-button" d="M512 656.853c-82.432 0-149.333-66.901-149.333-149.333s66.901-149.333 149.333-149.333 149.333 66.901 149.333 149.333-66.901 149.333-149.333 149.333zM512 592.853c47.104 0 85.333-38.229 85.333-85.333s-38.229-85.333-85.333-85.333-85.333 38.229-85.333 85.333 38.229 85.333 85.333 85.333zM299.947 185.685l63.019 63.019c9.984 9.984 23.552 15.616 37.717 15.616h222.635c14.165 0 27.733-5.632 37.717-15.616 0 0 63.019-63.019 63.019-63.019 12.459-12.501 32.768-12.501 45.227 0 12.501 12.501 12.501 32.768 0 45.269l-62.976 62.976c-22.016 22.016-51.883 34.389-82.987 34.389-56.405 0-166.229 0-222.635 0-31.104 0-60.971-12.373-82.987-34.389l-62.976-62.976c-12.501-12.501-12.501-32.768 0-45.269 12.459-12.501 32.768-12.501 45.227 0zM928 509.013c0 63.275-29.568 122.923-79.915 161.28-58.965 44.885-145.579 110.805-213.333 162.389-72.533 55.211-172.971 55.211-245.504 0-67.755-51.584-154.368-117.504-213.333-162.389-50.347-38.357-79.915-98.005-79.915-161.28v-284.416c0-111.957 90.752-202.667 202.667-202.667h426.667c111.915 0 202.667 90.709 202.667 202.667 0 94.763 0 208.512 0 284.416zM864 509.013v-284.416c0-76.587-62.080-138.667-138.667-138.667-127.019 0-299.648 0-426.667 0-76.587 0-138.667 62.080-138.667 138.667v284.416c0 43.307 20.224 84.096 54.656 110.336 0 0 213.333 162.389 213.333 162.389 49.621 37.803 118.357 37.803 168.021 0 0 0 213.333-162.389 213.333-162.389 34.432-26.24 54.656-67.029 54.656-110.336z" />
<glyph unicode="&#xe907;" glyph-name="payment" d="M768 832h-512c-117.821 0-213.333-95.513-213.333-213.333v0-341.333c0-117.821 95.513-213.333 213.333-213.333v0h341.333c23.564 0 42.667 19.103 42.667 42.667s-19.103 42.667-42.667 42.667v0h-341.333c-70.692 0-128 57.308-128 128v0 213.333h768v-42.667c0-23.564 19.103-42.667 42.667-42.667s42.667 19.103 42.667 42.667v0 170.667c0 117.821-95.513 213.333-213.333 213.333v0zM128 576v42.667c0 70.692 57.308 128 128 128v0h512c70.692 0 128-57.308 128-128v0-42.667zM981.333 192c0-23.564-19.103-42.667-42.667-42.667v0h-42.667v-42.667c0-23.564-19.103-42.667-42.667-42.667s-42.667 19.103-42.667 42.667v0 42.667h-42.667c-23.564 0-42.667 19.103-42.667 42.667s19.103 42.667 42.667 42.667v0h42.667v42.667c0 23.564 19.103 42.667 42.667 42.667s42.667-19.103 42.667-42.667v0-42.667h42.667c23.564 0 42.667-19.103 42.667-42.667v0zM426.667 320c23.564 0 42.667-19.103 42.667-42.667s-19.103-42.667-42.667-42.667v0h-170.667c-23.564 0-42.667 19.103-42.667 42.667s19.103 42.667 42.667 42.667v0z" />
<glyph unicode="&#xe908;" glyph-name="megaphone" d="M806.344 748.12l64.268 64.266c11.716 11.716 11.716 30.71 0 42.426-11.714 11.716-30.71 11.714-42.426 0l-64.268-64.266c-11.716-11.714-11.716-30.71 0-42.426 11.712-11.714 30.708-11.718 42.426 0zM945.8 606.534h-64.268c-16.568 0-30-13.432-30-30s13.432-30 30-30h64.268c16.568 0 30 13.432 30 30s-13.432 30-30 30zM592.332 835.734c16.568 0 30 13.432 30 30v64.266c0 16.568-13.432 30-30 30s-30-13.432-30-30v-64.266c0-16.568 13.432-30 30-30zM56.984 212.146c-11.706-11.704-11.716-30.712 0-42.426l128.534-128.534c11.712-11.714 30.708-11.718 42.426 0l50.272 50.27-170.958 170.958zM576.388 187.924l-210.654-99.132 144.006-144.006c11.712-11.714 30.71-11.718 42.426 0l112.466 112.466c11.716 11.716 11.716 30.71 0 42.426zM452.878 854.812c-6.908 6.908-16.748 10.018-26.372 8.34-9.624-1.68-17.826-7.94-21.986-16.78l-254.838-541.528 170.958-170.96 541.53 254.838c8.84 4.16 15.1 12.364 16.78 21.988s-1.432 19.462-8.34 26.37z" />
<glyph unicode="&#xe909;" glyph-name="chevron" d="M293.342 955.904l509.269-509.952-506.47-505.856-71.885 71.953 434.586 433.971-437.453 438.067z" />
<glyph unicode="&#xe90a;" glyph-name="play-button" d="M512 960c-282.77 0-512-229.23-512-512s229.23-512 512-512 512 229.23 512 512-229.23 512-512 512zM372.106 225.31v445.38l385.71-222.69-385.71-222.69z" />
<glyph unicode="&#xe90b;" glyph-name="chatting" d="M708.060 896.756h-592.26c-63.86 0-115.8-51.94-115.8-115.8v-519c0-24.58 27.798-38.436 47.42-24.42l164.94 117.68c13.84 9.86 30.12 15.080 47.12 15.080h362.78c63.86 0 115.8 51.94 115.8 115.8v380.66c0 16.56-13.44 30-30 30zM562.34 533.336h-346.62c-16.56 0-30 13.42-30 30 0 16.56 13.44 30 30 30h346.62c16.56 0 30-13.44 30-30 0-16.58-13.44-30-30-30zM562.34 673.336h-346.62c-16.56 0-30 13.42-30 30 0 16.56 13.44 30 30 30h346.62c16.56 0 30-13.44 30-30 0-16.58-13.44-30-30-30zM1024 548.256v-518.98c0-24.414-27.658-38.536-47.42-24.42l-164.94 117.66c-13.84 9.86-30.12 15.080-47.12 15.080h-362.78c-63.86 0-115.8 51.96-115.8 115.82v56.88h336.32c96.94 0 175.8 78.86 175.8 175.8v177.98h110.14c63.86 0 115.8-51.96 115.8-115.82z" />
<glyph unicode="&#xe90c;" glyph-name="safebox" d="M0 324.966v60.086h132.712v-60.086zM132.712 577.404h-132.712v60.108h132.712zM48.656 503.568h84.056v-44.684h-84.056zM266.186-50.726h-60.358v93.444h60.358zM866.83-50.726h-60.358v93.444h60.358zM1024 15.75v930.976h-975.344v-235.382h84.056v125.768c0 20.366 16.524 36.912 36.912 36.912h733.41c20.376 0 36.922-16.546 36.922-36.912v-711.748c0-20.398-16.546-36.912-36.922-36.912h-733.41c-20.388 0-36.912 16.514-36.912 36.912v125.768h-84.056v-235.38h975.344zM206.546 162.286v637.902h659.574v-637.902zM715.482 518.154c20.378 0 36.912-16.546 36.912-36.922-0.022-20.388-16.534-36.912-36.912-36.912-0.022 0-0.022 0-0.022 0h-40.286c-13.204-49.604-52.324-88.736-101.94-101.938v-40.286c0-20.388-16.512-36.912-36.912-36.934-20.378 0-36.922 16.546-36.922 36.922v40.298c-49.604 13.204-88.714 52.336-101.908 101.938h-40.308c-20.378 0-36.912 16.524-36.912 36.912 0 20.378 16.534 36.922 36.912 36.922h40.286c13.214 49.604 52.324 88.714 101.928 101.928v40.286c0 20.378 16.546 36.922 36.922 36.922 20.398 0 36.912-16.546 36.912-36.922v-40.286c49.614-13.214 88.736-52.324 101.94-101.928zM536.322 411.37c-38.512 0-69.838 31.338-69.838 69.862 0 38.512 31.326 69.85 69.838 69.85 38.534 0 69.862-31.338 69.862-69.85 0-38.522-31.328-69.862-69.862-69.862z" />
<glyph unicode="&#xe90d;" glyph-name="online" d="M512 960c-132.55 0-240-109.45-240-242 0-132.546 107.45-240 240-240s240 107.454 240 240c0 132.55-107.45 242-240 242zM562.272 610.034c-6.498-3.248-13.31-5.806-20.28-7.742v-8.29c0-16.568-13.432-30-30-30s-30 13.432-30 30v7.352c-12.488 3.144-24.134 8.43-34 15.828-13.254 9.94-15.942 28.744-6 42 9.942 13.252 28.746 15.942 42 6 12-9 35.080-9.668 51.446-1.484 6.578 3.29 10.128 7.25 10.128 9.304 0 3.59 0 4.144-3.992 6.274-7.828 4.178-21.668 6.746-35.054 9.228-17.87 3.316-36.348 6.744-52.36 15.29-23.382 12.48-35.742 32.954-35.742 59.208 0 26.284 15.762 49.24 43.244 62.98 6.514 3.258 13.342 5.836 20.33 7.774v8.246c0 16.568 13.432 30 30 30s30-13.432 30-30v-7.346c12.49-3.146 24.134-8.436 34-15.834 13.256-9.942 15.942-28.746 6-42s-28.742-15.942-42-6c-12.018 9.014-35.118 9.682-51.498 1.496-6.616-3.308-10.076-7.19-10.076-9.314 0-3.592 0-4.144 3.992-6.276 7.828-4.178 21.67-6.746 35.054-9.228 17.87-3.316 36.348-6.744 52.362-15.29 23.38-12.48 35.74-32.954 35.74-59.208 0-26.258-15.78-49.21-43.294-62.968zM994 838h-207.43c16.162-36.816 25.43-77.292 25.43-120 0-165.41-134.59-300-300-300s-300 134.59-300 300c0 42.708 9.268 83.184 25.43 120h-207.43c-16.582 0-30-13.418-30-30v-570h1024v570c0 16.582-13.418 30-30 30zM752 298h-480c-16.582 0-30 13.418-30 30s13.418 30 30 30h480c16.582 0 30-13.418 30-30s-13.418-30-30-30zM0 86c0-16.582 13.418-30 30-30h332v-60h-90c-16.582 0-30-13.418-30-30s13.418-30 30-30h480c16.582 0 30 13.418 30 30s-13.418 30-30 30h-90v60h332c16.582 0 30 13.418 30 30v92h-1024z" />
<glyph unicode="&#xe90e;" glyph-name="loan" d="M0 258.539v-267.305c0-16.766 13.586-30.336 30.336-30.336h124.281v327.976h-124.281c-16.75 0-30.336-13.586-30.336-30.336zM665.414 418.539c0-17.633-14.289-31.922-31.922-31.922-17.625 0-31.914 14.289-31.914 31.922 0 17.625 14.289 31.914 31.914 31.914 17.633 0 31.922-14.289 31.922-31.914zM93.242 500.187h143.328v-133.18c-0.305-0.102-0.602-0.195-0.906-0.297 15.836 5.070 33.57 7.781 52.82 7.781 22.766-3.133 122.219 16.281 165.797-55.773 7.219-11.93 19.367-19.047 32.477-19.047h101.062c62.625 0 107.805-62.156 87.117-121.695 65.109 7.203 99.633 32.578 162.805 58.687v263.523h143.312c28.266 0 41.125 35.367 19.508 53.547l-162.82 136.883v213.031c0 16.766-13.594 30.336-30.336 30.336h-118.133c-16.766 0-30.336-13.57-30.336-30.336v-62.742l-102.273 85.984c-11.266 9.477-27.75 9.477-39.031 0l-443.906-373.156c-21.578-18.133-8.758-53.547 19.516-53.547zM726.086 418.555c0.031-51.016-41.266-92.57-92.57-92.57-51.023-0.023-92.57 41.266-92.57 92.57 0 51.055 41.523 92.57 92.57 92.57 51.219 0 92.602-41.492 92.57-92.57zM612.351 633.008c11.852 11.852 31.062 11.852 42.906 0 11.852-11.852 11.852-31.062 0-42.914l-193.312-193.297c-11.852-11.852-31.023-11.867-42.891 0-11.852 11.828-11.852 31.039 0 42.891zM440.851 703.82c51.164 0 92.633-41.469 92.633-92.633s-41.469-92.633-92.633-92.633-92.633 41.469-92.633 92.633 41.469 92.633 92.633 92.633zM1002.422 244.469l-220.414-99.531c-43.859-19.492-90.25-29.32-138.047-29.32h-228.891c-16.742 0-30.336 13.57-30.336 30.328 0 16.75 13.594 30.336 30.336 30.336h172.75c17.328 0 31.367 14.117 31.367 31.367 0 17.289-14.078 31.359-31.367 31.359h-101.062c-34.523 0-66.070 18.055-84.367 48.312-20.602 34.016-77.719 25.266-113.906 26.508-22.008 0-73.203-5.375-73.203-55.289v-297.68h410.742c60.016 0 119.141 15.977 171.008 46.187l184.664 107.578c46.883 27.312 56.281 90.156 20.727 129.844zM436.633 579.617c20.867-2.633 38.422 14.914 35.789 35.789-1.789 14.219-13.273 25.695-27.492 27.492-20.867 2.625-38.414-14.922-35.789-35.789 1.789-14.219 13.273-25.703 27.492-27.492z" />
<glyph unicode="&#xe90f;" glyph-name="right-arrow" d="M585.144 886.858l-109.714-109.714 256.001-256.001h-731.431v-146.285h731.428l-255.998-256.003 109.714-109.714 438.856 438.856z" />
<glyph unicode="&#xe910;" glyph-name="credit-card" d="M1018.012 531.48c12.268 32.154 5.494 69.97-20.374 95.838l-306.342 306.342c-35.092 35.092-92.192 35.088-127.28 0l-344.402-344.404h-129.614c-49.626 0-90-40.374-90-90v-473.234c0-49.626 40.374-90 90-90h844c49.626 0 90 40.374 90 90v473.234c0 11.354-2.134 22.212-5.988 32.224zM952.852 587.254c-6.082 1.302-12.386 2.002-18.852 2.002h-65.006l40.928 40.928zM867.496 672.61l-83.354-83.354h-84.856l125.782 125.782zM606.444 891.234c5.85 5.848 13.532 8.774 21.214 8.774s15.364-2.926 21.212-8.774l133.772-133.772-168.208-168.208h-309.97zM964 26.022c0-16.542-13.458-30-30-30h-844c-16.542 0-30 13.458-30 30v473.234c0 16.542 13.458 30 30 30h844c16.542 0 30-13.458 30-30zM118 146.83h139.806v-60h-139.806zM334.064 146.83h139.804v-60h-139.804zM550.13 146.83h139.804v-60h-139.804zM766.194 146.83h139.806v-60h-139.806zM272.534 449.256h-102.534c-27.57 0-50-22.43-50-50v-80c0-27.57 22.43-50 50-50h102.534c27.57 0 50 22.43 50 50v80c0 27.57-22.43 50-50 50zM262.534 329.256h-82.534v60h82.534z" />
<glyph unicode="&#xe911;" glyph-name="computer" d="M1024 125.297v834.703h-1024v-834.711h375.391v-34.164c0-51.719-42.078-93.797-93.789-93.797h-52.547v-60.086h564.508v60.086h-52.547c-51.719 0-93.797 42.078-93.797 93.797v34.164h376.781zM963.914 899.914v-517.922h-903.828v517.922zM60.086 321.914h903.828v-136.539h-903.828zM619.148-2.672h-215.688c20.047 25.984 32.016 58.508 32.016 93.797v34.164h151.656v-34.164c0-35.289 11.969-67.813 32.016-93.797zM512 281.969c-15.711 0-30.766-13.82-30.039-30.039 0.727-16.281 13.195-30.047 30.039-30.047 15.711 0 30.766 13.82 30.039 30.047-0.727 16.273-13.195 30.039-30.039 30.039zM745.164 498.469h-61.016v99.602h50.156v140.117l-222.922 112.336-222.922-112.336v-140.117h50.375v-99.602h-61.234v-60.078h467.563zM624.063 498.469h-34.992v99.602h34.992zM528.992 598.070v-99.602h-35v99.602zM348.547 701.18l162.836 82.055 162.836-82.055v-43.023h-325.672zM398.922 598.070h34.992v-99.602h-34.992zM512 744.531c-15.711 0-30.766-13.82-30.039-30.047 0.727-16.273 13.195-30.039 30.039-30.039 15.711 0 30.766 13.82 30.039 30.039-0.727 16.281-13.195 30.047-30.039 30.047z" />
<glyph unicode="&#xe912;" glyph-name="book" d="M180 960c-82.71 0-150-67.29-150-150v-769c0-57.898 47.102-105 105-105h859v1024zM180 900h30v-754h-75c-16.096 0-31.352-3.65-45-10.152v674.152c0 49.626 40.374 90 90 90zM934-4h-799c-24.814 0-45 20.186-45 45s20.186 45 45 45h799zM270 146v754h664v-754zM602 819.272l-270-112.5v-481.542h540v481.542zM392 666.772l210 87.5 210-87.5v-62h-420zM632 405.228v139.542h60v-139.542zM572 544.772v-139.542h-60v139.542zM452 544.772v-139.542h-60v139.542zM392 285.228v60h420v-60zM812 405.228h-60v139.542h60z" />
<glyph unicode="&#xe913;" glyph-name="check-book" d="M1024 779.294h-725.855c-13.989 68.652-74.832 120.471-147.556 120.471-83.034 0-150.588-67.554-150.588-150.588v-602.353c0-83.034 67.554-150.588 150.588-150.588h662.588v150.588h210.824zM150.588 839.529c49.821 0 90.353-40.532 90.353-90.353v-480.553c-53.688 37.745-126.35 39.488-180.706-1.412v481.965c0 49.821 40.532 90.353 90.353 90.353zM752.941 56.471h-602.353c-49.821 0-90.353 40.53-90.353 90.353 0 49.821 40.532 90.353 90.353 90.353 40.882 0 79.061-27.447 90.353-64.383v-25.969h512zM963.765 207.059h-662.588v512h662.588zM391.529 628.706h481.882v-60.235h-481.882zM391.529 508.235h481.882v-60.235h-481.882zM391.529 387.765h240.941v-60.235h-240.941z" />
<glyph unicode="&#xe914;" glyph-name="headphones" d="M0 350v-120c0-60.752 49.248-110 110-110h60c16.568 0 30 13.432 30 30v310h-90c-60.752 0-110-49.248-110-110zM702 370v160c0 38.598-31.402 70-70 70h-240c-38.598 0-70-31.402-70-70v-160c0-38.598 31.402-70 70-70h69.138l111.656-93.046c5.498-4.582 12.32-6.954 19.21-6.954 4.316 0 8.66 0.932 12.72 2.832 10.542 4.938 17.276 15.528 17.276 27.168v70h10c38.598 0 70 31.402 70 70zM552 420h-80c-16.568 0-30 13.432-30 30s13.432 30 30 30h80c16.568 0 30-13.432 30-30s-13.432-30-30-30zM402-4c0-33.138 26.862-60 60-60h100c33.138 0 60 26.862 60 60s-26.862 60-60 60h-100c-33.138 0-60-26.862-60-60zM844 60v-6c0-16.542-13.458-30-30-30h-135.332c2.158-8.99 3.332-18.358 3.332-28 0-11.082-1.542-21.804-4.366-32h136.366c49.626 0 90 40.374 90 90v6zM914 460h-90v-310c0-16.568 13.432-30 30-30h60c60.752 0 110 49.248 110 110v120c0 60.752-49.248 110-110 110zM817.47 833.47c-81.594 81.594-190.078 126.53-305.47 126.53s-223.876-44.936-305.47-126.53-126.53-190.078-126.53-305.47v-8h120v8c0 172.038 139.962 312 312 312s312-139.962 312-312v-8h120v8c0 115.392-44.936 223.876-126.53 305.47z" />
<glyph unicode="&#xe915;" glyph-name="interest-rate" d="M832 64c-4.418 0.001-8.417 1.792-11.312 4.688l-160 160c-2.894 2.895-4.685 6.895-4.685 11.312 0 8.835 7.161 15.998 15.996 16h64v182.72c0 8.837 7.163 16 16 16s16-7.163 16-16v0-198.72c0-8.837-7.163-16-16-16v0h-41.376l121.376-121.376 121.376 121.376h-41.376c-8.837 0-16 7.163-16 16v0 672h-128v-294.72c0-8.837-7.163-16-16-16s-16 7.163-16 16v0 310.72c0 8.837 7.163 16 16 16v0h160c8.837 0 16-7.163 16-16v0-672h64c8.835-0.002 15.997-7.165 15.997-16 0-4.417-1.79-8.417-4.685-11.312l-160-160c-2.895-2.896-6.894-4.687-11.312-4.688v0zM192 64c-4.418 0.001-8.417 1.792-11.312 4.688l-160 160c-2.894 2.895-4.685 6.895-4.685 11.312 0 8.835 7.161 15.998 15.996 16h64v672c0 8.837 7.163 16 16 16v0h160c8.837 0 16-7.163 16-16v0-310.72c0-8.837-7.163-16-16-16s-16 7.163-16 16v0 294.72h-128v-672c0-8.837-7.163-16-16-16v0h-41.376l121.376-121.376 121.376 121.376h-41.376c-8.837 0-16 7.163-16 16v0 198.72c0 8.837 7.163 16 16 16s16-7.163 16-16v0-182.72h64c8.835-0.002 15.997-7.165 15.997-16 0-4.417-1.79-8.417-4.685-11.312l-160-160c-2.895-2.896-6.894-4.687-11.312-4.688v0zM592 755.2c-8.837 0-16 7.163-16 16v0 140.8h-128v-140.8c0-8.837-7.163-16-16-16s-16 7.163-16 16v0 156.8c0 8.837 7.163 16 16 16v0h160c8.837 0 16-7.163 16-16v0-156.8c0-8.837-7.163-16-16-16v0zM512-48c-4.418 0.001-8.417 1.792-11.312 4.688l-160 160c-2.894 2.895-4.685 6.895-4.685 11.312 0 8.835 7.161 15.998 15.996 16h64v140.8c0 8.837 7.163 16 16 16s16-7.163 16-16v0-156.8c0-8.837-7.163-16-16-16v0h-41.376l121.376-121.376 121.376 121.376h-41.376c-8.837 0-16 7.163-16 16v0 156.8c0 8.837 7.163 16 16 16s16-7.163 16-16v0-140.8h64c8.835-0.002 15.997-7.165 15.997-16 0-4.417-1.79-8.417-4.685-11.312l-160-160c-2.895-2.896-6.894-4.687-11.312-4.688v0zM432 432c-8.835 0.002-15.997 7.165-15.997 16 0 4.417 1.79 8.417 4.685 11.312l160 160c2.874 2.779 6.795 4.491 11.115 4.491 8.837 0 16-7.163 16-16 0-4.321-1.712-8.241-4.496-11.12l-159.996-159.996c-2.895-2.896-6.894-4.687-11.312-4.688v0zM576 416c-26.51 0-48 21.49-48 48s21.49 48 48 48c26.51 0 48-21.49 48-48v0c0-26.51-21.49-48-48-48v0zM576 480c-8.837 0-16-7.163-16-16s7.163-16 16-16c8.837 0 16 7.163 16 16v0c0 8.837-7.163 16-16 16v0zM448 544c-26.51 0-48 21.49-48 48s21.49 48 48 48c26.51 0 48-21.49 48-48v0c0-26.51-21.49-48-48-48v0zM448 608c-8.837 0-16-7.163-16-16s7.163-16 16-16c8.837 0 16 7.163 16 16v0c0 8.837-7.163 16-16 16v0zM512 256c-150.221 0-272 121.779-272 272s121.779 272 272 272c150.221 0 272-121.779 272-272v0c-0.173-150.152-121.848-271.827-271.983-272h-0.017zM512 768c-132.548 0-240-107.452-240-240s107.452-240 240-240c132.548 0 240 107.452 240 240v0c-0.155 132.486-107.514 239.845-239.985 240h-0.015z" />
<glyph unicode="&#xe916;" glyph-name="theater" d="M272 564.32l108.64 54.24c13.787 6.968 23.076 21.023 23.076 37.248 0 1.42-0.071 2.823-0.21 4.206l0.014-0.174c-1.876 15.406-11.447 28.216-24.696 34.605l-0.264 0.115-106.56 53.28c-5.411 2.744-11.798 4.351-18.56 4.351-23.018 0-41.687-18.623-41.76-41.624v-109.127c0.017-22.962 18.635-41.57 41.6-41.57 6.827 0 13.27 1.645 18.954 4.559l-0.234-0.109zM243.68 710.56c0 0.020 0 0.043 0 0.067 0 5.302 4.298 9.6 9.6 9.6 1.576 0 3.062-0.38 4.374-1.052l-0.054 0.025 108.64-54.4c3.245-1.586 5.441-4.863 5.441-8.652 0-0.052 0-0.104-0.001-0.155v0.008c0-0.014 0-0.031 0-0.048 0-3.817-2.191-7.122-5.384-8.726l-0.056-0.026-108.16-55.2c-1.258-0.647-2.745-1.027-4.32-1.027-5.302 0-9.6 4.298-9.6 9.6 0 0.024 0 0.047 0 0.071v-0.004zM592 464c-8.837 0-16-7.163-16-16s7.163-16 16-16v0h288c8.837 0 16 7.163 16 16s-7.163 16-16 16v0h-64v64h64c8.837 0 16 7.163 16 16s-7.163 16-16 16v0h-288c-8.837 0-16-7.163-16-16s7.163-16 16-16v0h64v-64zM688 528h96v-64h-96zM992 656h-421.28l395.84 144c6.16 2.319 10.463 8.163 10.463 15.011 0 2.022-0.375 3.957-1.060 5.738l0.037-0.11-43.68 120.16c-2.309 6.18-8.162 10.501-15.025 10.501-1.897 0-3.717-0.33-5.406-0.936l0.112 0.035-352-128v65.6c0 8.837-7.163 16-16 16v0h-512c-8.837 0-16-7.163-16-16v0-496c0-8.837 7.163-16 16-16v0h43.2c-7.128-11.538-11.352-25.526-11.352-40.5 0-17.96 6.076-34.5 16.285-47.678l-0.133 0.178c-0.038-0.479-0.060-1.037-0.060-1.6s0.022-1.121 0.064-1.673l-0.005 0.073 59.2-294.24c4.557-22.137 23.881-38.549 47.039-38.56h299.521c23.16 0.011 42.483 16.423 46.986 38.25l0.054 0.31 56.32 281.44h402.88c8.837 0 16 7.163 16 16v0 352c0 8.837-7.163 16-16 16v0zM892.8 909.44l15.040 5.44 32-90.24-82.72-30.080zM787.52 871.040l67.68 24.96-34.88-114.72-68.32-24.96zM682.24 832l67.68 24.64-34.88-114.88-67.68-24.64zM576.96 793.76l67.68 25.44-34.72-115.2-67.68-24.64zM48 408v464h480v-61.28l-97.28-35.36c-6.207-2.295-10.552-8.162-10.552-15.044 0-1.95 0.349-3.819 0.988-5.547l-0.036 0.111 42.88-117.76v-158.88c-4.803 1.105-10.323 1.745-15.99 1.76h-0.010c-0.022 0-0.049 0-0.075 0-15.178 0-29.354-4.287-41.384-11.715l0.339 0.195c-13.656 25.701-40.259 42.905-70.88 42.905s-57.224-17.204-70.67-42.473l-0.21-0.432c-11.691 7.233-25.867 11.52-41.045 11.52-0.026 0-0.053 0-0.079 0h0.004c-0.005 0-0.011 0-0.016 0-38.519 0-70.68-27.223-78.292-63.479l-0.092-0.521c-0.48 0.011-1.046 0.017-1.613 0.017-12.524 0-24.356-2.961-34.835-8.22l0.448 0.204zM539.36 780.8l-34.72-114.88-15.040-5.44-32.8 90.24zM186.24-16c-0.096-0.002-0.209-0.003-0.323-0.003-7.705 0-14.138 5.446-15.659 12.699l-0.018 0.104-54.72 275.2h62.24l34.56-288zM244.64-16l-34.56 288h61.92l2.56-66.080c-20.472-13.42-33.957-36.032-34.558-61.831l-0.002-0.089c1.006-28.071 16.867-52.221 39.921-64.919l0.399-0.201 3.84-94.88zM336 192c35.36 0 64-21.6 64-48s-28.64-48-64-48-64 21.6-64 48 28.64 48 64 48zM304 272h64l-2.080-51.84c-8.783 2.437-18.868 3.838-29.28 3.838s-20.497-1.401-30.077-4.024l0.797 0.186zM355.2-16h-39.040l-3.36 82.4c6.974-1.527 14.985-2.401 23.2-2.401s16.226 0.874 23.945 2.535l-0.745-0.134zM387.2-16l3.84 94.88c23.711 12.749 39.818 36.93 40.955 64.969l0.005 0.151c-0.753 25.996-14.477 48.63-34.898 61.739l-0.302 0.181 3.2 66.080h62.56l-35.2-288zM500.8-3.2c-1.539-7.357-7.972-12.803-15.677-12.803-0.113 0-0.227 0.001-0.339 0.004h-25.103l34.56 288h62.24zM563.52 304h-455.040c-7.678 8.423-12.404 19.652-12.48 31.985v0.015c0 26.51 21.49 48 48 48v0c4.37-0.112 8.543-0.747 12.524-1.846l-0.364 0.086c1.252-0.352 2.69-0.554 4.175-0.554 3.755 0 7.208 1.294 9.938 3.46l-0.033-0.025c3.633 2.957 5.935 7.428 5.935 12.437 0 0.24-0.005 0.479-0.016 0.716l0.001-0.034c-0.002 0.623-0.060 1.232-0.17 1.822l0.010-0.062c0.252 26.317 21.645 47.554 47.998 47.554 14.658 0 27.781-6.57 36.585-16.926l0.057-0.068c2.952-3.431 7.299-5.59 12.15-5.59 1.367 0 2.694 0.171 3.96 0.494l-0.111-0.024c6.057 1.736 10.582 6.797 11.509 13.032l0.011 0.088c4.271 22.494 23.776 39.273 47.2 39.273s42.929-16.779 47.153-38.973l0.047-0.3c0.938-6.323 5.463-11.384 11.407-13.092l0.113-0.028c1.156-0.299 2.483-0.47 3.85-0.47 4.851 0 9.198 2.159 12.133 5.569l0.018 0.021c8.865 11.346 22.549 18.571 37.92 18.571 26.51 0 48-21.49 48-48 0-0.060 0-0.12 0-0.181v0.009s0-2.080 0-2.72c-0.009-0.204-0.015-0.443-0.015-0.683 0-5.009 2.302-9.48 5.905-12.414l0.029-0.023c2.697-2.141 6.15-3.434 9.905-3.434 1.485 0 2.923 0.202 4.288 0.581l-0.112-0.027c3.565 0.999 7.681 1.634 11.925 1.758l0.075 0.002c26.51 0 48-21.49 48-48v0c-0.076-12.348-4.802-23.577-12.514-32.038l0.034 0.038zM976 304h-374.88c4.316 9.406 6.847 20.403 6.88 31.988v0.012c0 0.005 0 0.010 0 0.016 0 44.183-35.817 80-80 80-0.563 0-1.124-0.006-1.684-0.017l0.084 0.001c-4.131 19.742-15.070 36.423-30.198 47.854l-0.202 0.146v160h480z" />
<glyph unicode="&#xe917;" glyph-name="online-shop" d="M696.32 611.84h-315.023l-35.308 70.615c-3.482 6.922-10.568 11.305-18.309 11.305h-81.92c-11.305 0-20.48-9.175-20.48-20.48s9.175-20.48 20.48-20.48h69.263l34.693-69.345 40.468-121.446c2.785-8.356 10.609-14.008 19.415-14.008h245.76c8.806 0 16.63 5.652 19.415 14.008l40.96 122.88c2.089 6.226 1.024 13.107-2.785 18.432-3.85 5.366-10.035 8.52-16.63 8.52zM640.614 488.96h-216.269l-27.32 81.92h270.828zM819.2 857.6h-614.4c-56.443 0-102.4-45.916-102.4-102.4v-450.56c0-56.484 45.957-102.4 102.4-102.4h286.72v-122.88h-163.84c-11.305 0-20.48-9.175-20.48-20.48s9.175-20.48 20.48-20.48h368.64c11.305 0 20.48 9.175 20.48 20.48s-9.175 20.48-20.48 20.48h-163.84v122.88h286.72c56.443 0 102.4 45.916 102.4 102.4v450.56c0 56.484-45.957 102.4-102.4 102.4zM880.64 304.64c0-33.874-27.566-61.44-61.44-61.44h-614.4c-33.874 0-61.44 27.566-61.44 61.44v450.56c0 33.874 27.566 61.44 61.44 61.44h614.4c33.874 0 61.44-27.566 61.44-61.44zM465.043 401.043c7.998-7.998 7.998-20.965 0-28.963s-20.965-7.998-28.963 0-7.998 20.965 0 28.963 20.965 7.998 28.963 0zM587.923 401.043c7.998-7.998 7.998-20.965 0-28.963s-20.965-7.998-28.963 0-7.998 20.965 0 28.963 20.965 7.998 28.963 0z" />
<glyph unicode="&#xe918;" glyph-name="checkbox-mark" d="M1016.943 838.040l-652.792-501.765-357.269 281.935-6.882-130.732 354.693-429.517 669.307 649.522z" />
<glyph unicode="&#xe919;" glyph-name="menu" d="M896 832h-768v-85.333h768zM896 149.333h-469.333v-85.333h469.333zM896 490.667h-768v-85.333h768z" />
<glyph unicode="&#xe91a;" d="M512-63.98c282.754 0 511.99 229.256 511.99 511.99s-229.216 511.99-511.99 511.99-511.99-229.276-511.99-511.99 229.236-511.99 511.99-511.99z" />
<glyph unicode="&#xe91b;" d="M948.331 715.345h-459.351v133.697h341.313c46.646-37.349 85.883-81.572 116.774-131.503l1.264-2.195zM1023.99 448.010h-534.73v133.657h517.11c11.189-39.959 17.62-85.846 17.62-133.235 0-0.148 0-0.297 0-0.445v0.023zM512-63.98c0.347-0.001 0.759-0.001 1.171-0.001 120.516 0 231.241 41.917 318.392 111.968l-0.989-0.769h-637.128c86.135-69.281 196.835-111.199 317.326-111.199 0.432 0 0.864 0.001 1.296 0.002h-0.068zM948.891 180.615h-873.783c-23.987 38.462-43.636 82.912-56.624 130.121l-0.834 3.557h988.701c-13.818-50.765-33.467-95.215-58.705-135.831l1.246 2.153z" />
<glyph unicode="&#xe91c;" d="M237.705 880.322h-0.46v-0.32zM237.705 880.322h46.299l-43.619-31.299 16.5-51.199-43.519 31.299-43.239-31.299 14.22 44.179c-38.021-31.966-70.736-68.501-97.803-109.123l-1.175-1.875h15.080l-27.599-20-12.52-22 13.080-40.679-24.74 18-17.060-39.719 14.22-44.599h53.999l-42.919-31.619 16.5-51.199-43.519 31.299-25.6-18.76c-2.724-19.097-4.28-41.152-4.28-63.571 0-0.052 0-0.105 0-0.157v0.009h511.99v511.99c-0.197 0-0.43 0-0.663 0-101.557 0-196.177-29.702-275.646-80.894l2.014 1.215zM256.785 499.449l0.38-0.3h-0.28zM240.365 550.368l16.42-50.919-43.439 30.999-43.519-31.299 16.5 51.199-43.519 31.299h53.999l16.5 51.199 16.5-51.199h53.999zM240.665 699.405l16.5-51.199-43.519 31.299-43.519-31.299 16.5 51.199-43.519 31.299h53.999l16.5 51.199 16.5-51.199h53.999zM397.382 530.448l43.519-31.299-16.5 51.199 43.599 31.299h-53.999l-16.5 51.199-16.5-51.199h-53.999l43.519-31.299-16.5-51.199zM424.402 699.405l16.5-51.199-43.519 31.299-43.519-31.299 16.5 51.199-43.519 31.299h53.999l16.5 51.199 16.5-51.199h53.999zM440.901 797.263l-16.5 51.199 43.599 31.299h-53.999l-16.5 51.199-16.5-51.199h-53.999l43.519-31.299-16.5-51.199 43.519 31.299z" />
<glyph unicode="&#xe91d;" d="M1024 448c0-282.77-229.23-512-512-512s-512 229.23-512 512c0 282.77 229.23 512 512 512s512-229.23 512-512z" />
<glyph unicode="&#xe91e;" d="M400.698 514.782h618.968c-32.726 251.214-247.532 445.218-507.666 445.218-38.228 0-75.466-4.226-111.304-12.17v-433.048z" />
<glyph unicode="&#xe91f;" d="M267.13 514.784v382.962c-140.588-76.708-241.23-217.41-262.796-382.964h262.796z" />
<glyph unicode="&#xe920;" d="M267.128 381.218h-262.794c21.566-165.554 122.208-306.256 262.796-382.962z" />
<glyph unicode="&#xe921;" d="M400.696 381.216v-433.046c35.838-7.944 73.076-12.17 111.304-12.17 260.134 0 474.94 194.004 507.666 445.218h-618.97z" />
<glyph unicode="&#xe922;" d="M1024 448c0-282.77-229.23-512-512-512s-512 229.23-512 512c0 282.77 229.23 512 512 512s512-229.23 512-512z" />
<glyph unicode="&#xe923;" d="M105.84 759.716c-40.218-52.326-70.544-112.636-88.202-178.154h266.356z" />
<glyph unicode="&#xe924;" d="M1006.362 581.562c-17.658 65.516-47.986 125.826-88.202 178.152l-178.15-178.152z" />
<glyph unicode="&#xe925;" d="M17.638 314.432c17.66-65.516 47.986-125.826 88.202-178.15l178.148 178.15z" />
<glyph unicode="&#xe926;" d="M823.716 854.158c-52.326 40.218-112.634 70.544-178.152 88.204v-266.354z" />
<glyph unicode="&#xe927;" d="M200.284 41.842c52.326-40.218 112.636-70.544 178.152-88.204v266.352z" />
<glyph unicode="&#xe928;" d="M378.434 942.362c-65.516-17.66-125.826-47.986-178.15-88.202l178.15-178.15z" />
<glyph unicode="&#xe929;" d="M645.566-46.362c65.516 17.66 125.826 47.986 178.15 88.202l-178.15 178.15z" />
<glyph unicode="&#xe92a;" d="M740.010 314.432l178.15-178.152c40.216 52.324 70.544 112.636 88.202 178.152z" />
<glyph unicode="&#xe92b;" d="M1019.666 514.782h-440.882v440.884c-21.862 2.846-44.15 4.334-66.784 4.334-22.638 0-44.922-1.488-66.782-4.334v-440.882h-440.884c-2.846-21.862-4.334-44.15-4.334-66.784 0-22.638 1.488-44.922 4.334-66.782h440.882v-440.884c21.862-2.846 44.146-4.334 66.784-4.334 22.634 0 44.922 1.486 66.782 4.334v440.882h440.884c2.846 21.862 4.334 44.146 4.334 66.784 0 22.634-1.488 44.922-4.334 66.782z" />
<glyph unicode="&#xe92c;" d="M645.566 314.432l228.472-228.472c10.508 10.504 20.532 21.486 30.096 32.87l-195.604 195.604h-62.964z" />
<glyph unicode="&#xe92d;" d="M378.434 314.432h-0.004l-228.47-228.47c10.504-10.508 21.486-20.532 32.87-30.096l195.604 195.608z" />
<glyph unicode="&#xe92e;" d="M378.434 581.562v0.004l-228.472 228.474c-10.508-10.504-20.532-21.486-30.096-32.87l195.606-195.606h62.962z" />
<glyph unicode="&#xe92f;" d="M645.566 581.562l228.474 228.476c-10.504 10.508-21.486 20.532-32.87 30.094l-195.604-195.606z" />
<glyph unicode="&#xe930;" d="M1024 448c0-282.77-229.23-512-512-512s-512 229.23-512 512c0 282.77 229.23 512 512 512s512-229.23 512-512z" />
<glyph unicode="&#xe931;" d="M734.608 448c0-122.943-99.665-222.608-222.608-222.608s-222.608 99.665-222.608 222.608c0 122.943 99.665 222.608 222.608 222.608s222.608-99.665 222.608-222.608z" />
<glyph unicode="&#xe932;" d="M1024 448c0-282.77-229.23-512-512-512s-512 229.23-512 512c0 282.77 229.23 512 512 512s512-229.23 512-512z" />
<glyph unicode="&#xe933;" d="M1024 448c0-282.76-229.24-512-512-512s-512 229.24-512 512q0 19.34 1.42 38.34 1.14 15.4 3.18 30.52c3.868 28.427 9.358 53.57 16.623 77.948l-0.923-3.608q5.64 19.42 12.76 38.16 7.26 19.16 16 37.56c19.648 41.016 42.509 76.365 69.208 108.404l-0.668-0.824c2.4 2.92 4.86 5.8 7.32 8.64q9.18 10.6 18.9 20.66 4.060 4.2 8.18 8.2c1.82 1.8 3.66 3.6 5.5 5.36s3.66 3.48 5.5 5.22q13.54 12.6 28 24.24h0.12c25.267 20.502 53.633 39.215 83.766 55.016l2.814 1.344q13.8 7.14 28 13.42c17.041 7.824 37.975 15.636 59.511 22.048l3.569 0.912q15.1 4.44 30.56 8 20.38 4.58 41.36 7.52c5.080 0.7 10.18 1.34 15.3 1.88 4.24 0.48 8.48 0.88 12.76 1.22 14.24 1.22 28.68 1.82 43.24 1.82 282.76 0 512-229.24 512-512z" />
<glyph unicode="&#xe934;" d="M468.76 958.18v-48.34l-423.52-423.5h-43.82q1.14 15.4 3.18 30.52c3.868 28.427 9.358 53.57 16.623 77.948l-0.923-3.608 348.52 348.52q15.060 4.28 30.52 7.84 20.38 4.58 41.36 7.52c5.080 0.7 10.18 1.34 15.3 1.88 4.24 0.48 8.48 0.88 12.76 1.22z" />
<glyph unicode="&#xe935;" d="M468.76 569.080v-82.74h-47.040l-296.8 296.8q9.18 10.6 18.9 20.66 4.060 4.2 8.18 8.2c1.82 1.8 3.66 3.6 5.5 5.36s3.66 3.48 5.5 5.22q13.54 12.6 28 24.24l217.52-217.52z" />
<glyph unicode="&#xe936;" d="M456 956.96l-153.16-153.16h-47.26l143.6 143.6q20.38 4.58 41.36 7.52c5.24 0.86 10.34 1.5 15.46 2.040z" />
<glyph unicode="&#xe937;" d="M468.76 552.58v-47.26l-115.78 115.76h47.26z" />
<glyph unicode="&#xe938;" d="M468.76 812v-182.7h-163.020v-143.020h-142.74v143.080h-130q7.26 19.16 16 37.56c19.667 41.015 42.546 76.364 69.265 108.4l-0.665-0.82c2.4 2.92 4.86 5.8 7.32 8.64q9.18 10.6 18.9 20.66 4.060 4.2 8.18 8.2h11v10.64q13.54 12.6 28 24.24h0.12c25.267 20.502 53.633 39.215 83.766 55.016l2.814 1.344q13.8 7.14 28 13.42v-104.66z" />
<glyph unicode="&#xe939;" d="M456.8 200.28l-77.42 50.74 49.38 73.42-86.76-32.040-28.040 88.1-28.040-88.1-86.76 32.040 49.4-73.42-77.44-50.74 92.12-6.66-14.68-96.12 65.4 72.080 65.42-72.080-14.7 96.12z" />
<glyph unicode="&#xe93a;" d="M808.1 756.54l-36.94 24.2 23.56 35.020-41.38-15.28-13.38 42.020-13.38-42.020-41.38 15.28 23.56-35.020-36.94-24.2 43.94-3.2-7-45.84 31.2 34.38 31.2-34.38-7 45.84z" />
<glyph unicode="&#xe93b;" d="M648.28 493.42l-36.94 24.2 23.56 35.020-41.4-15.28-13.36 42.040-13.38-42.040-41.38 15.28 23.56-35.020-36.94-24.2 43.94-3.18-7-45.84 31.2 34.38 31.2-34.38-7 45.84z" />
<glyph unicode="&#xe93c;" d="M964.28 591.2l-36.94 24.2 23.56 35.020-41.4-15.28-13.36 42.020-13.38-42.020-41.38 15.28 23.56-35.020-36.94-24.2 43.94-3.18-7-45.86 31.2 34.4 31.2-34.4-7 45.86z" />
<glyph unicode="&#xe93d;" d="M808.1 101.54l-36.94 24.2 23.56 35.020-41.38-15.28-13.38 42.020-13.38-42.020-41.38 15.28 23.56-35.020-36.94-24.2 43.94-3.18-7-45.86 31.2 34.38 31.2-34.38-7 45.86z" />
<glyph unicode="&#xe93e;" d="M844.68 407.94l12.14-37.38h39.32l-31.8-23.12 12.14-37.38-31.8 23.1-31.8-23.1 12.14 37.38-31.8 23.12h39.3z" />
<glyph unicode="&#xe93f;" d="M562-61.58q-24.68-2.42-50-2.42c-282.76 0-512 229.24-512 512q0 19.34 1.42 38.34 1.14 15.4 3.18 30.52c3.868 28.427 9.358 53.57 16.623 77.948l-0.923-3.608q5.64 19.42 12.76 38.16 7.26 19.16 16 37.56c19.648 41.016 42.509 76.365 69.208 108.404l-0.668-0.824c2.4 2.92 4.86 5.8 7.32 8.64q9.18 10.6 18.9 20.66 4.060 4.2 8.18 8.2c1.82 1.8 3.66 3.6 5.5 5.36s3.66 3.48 5.5 5.22q13.54 12.6 28 24.24h0.12c25.267 20.502 53.633 39.215 83.766 55.016l2.814 1.344q13.8 7.14 28 13.42c17.041 7.824 37.975 15.636 59.511 22.048l3.569 0.912q15.1 4.44 30.56 8 20.38 4.58 41.36 7.52c5.080 0.7 10.18 1.34 15.3 1.88 4.24 0.48 8.48 0.88 12.76 1.22 14.24 1.22 28.68 1.82 43.24 1.82q25.28 0 50-2.42c-34.684-3.405-66.35-9.713-96.818-18.801l3.598 0.921q-23.36-6.78-45.72-15.7c-38.87-15.617-72.338-33.875-103.3-55.477l1.66 1.097-15.68-15.62v4.38q-14.44-10.8-28-22.58c-53.422-46.145-96.777-102.337-127.409-165.821l-1.331-3.059q-8.72-18.38-16-37.56c-1.040-2.74-2-5.5-3.040-8.28q-6.78-18.76-12-38.18-4.24-15.5-7.5-31.4c-6.651-31.026-10.46-66.67-10.46-103.204 0-0.104 0-0.208 0-0.312v0.017c0-266 202.66-484.48 462-509.58z" />
<glyph unicode="&#xe940;" d="M468.76 958.18v-18.48q-23.34-6.78-45.7-15.7c-38.87-15.617-72.338-33.875-103.3-55.477l1.66 1.097-15.68-15.62v4.38q-14.44-10.8-28-22.58c-53.422-46.145-96.777-102.337-127.409-165.821l-1.331-3.059q-8.72-18.38-16-37.56c-1.040-2.74-2-5.5-3.040-8.28q-6.78-18.76-12-38.18-4.24-15.5-7.5-31.4l-65.22-65.16h-43.82q1.14 15.4 3.18 30.52c3.868 28.427 9.358 53.57 16.623 77.948l-0.923-3.608 348.44 348.44q15.14 4.36 30.6 7.92 20.38 4.58 41.36 7.52c5.080 0.7 10.18 1.34 15.3 1.88 4.24 0.48 8.48 0.88 12.76 1.22z" />
<glyph unicode="&#xe941;" d="M239.020 798.82c-20.437-21.714-39.212-45.509-55.813-70.856l-1.207-1.964-13.38 13.38-43.7 43.76q9.18 10.6 18.9 20.66 4.060 4.2 8.18 8.2c1.82 1.8 3.66 3.6 5.5 5.36s3.66 3.48 5.5 5.22q13.54 12.6 28 24.24z" />
<glyph unicode="&#xe942;" d="M456 956.96l-32.94-32.96c-38.87-15.617-72.338-33.875-103.3-55.477l1.66 1.097 78 78q20.38 4.58 41.36 7.52c5 0.64 10.1 1.28 15.22 1.82z" />
<glyph unicode="&#xe943;" d="M171.12 803.8h-27.3q4.060 4.2 8.18 8.2c1.82 1.8 3.66 3.6 5.5 5.36z" />
<glyph unicode="&#xe944;" d="M305.74 916.74v-58.36q-14.44-10.8-28-22.58c-53.422-46.145-96.777-102.337-127.409-165.821l-1.331-3.059q-8.72-18.38-16-37.56h-100q7.26 19.16 16 37.56c19.667 41.015 42.546 76.364 69.265 108.4l-0.665-0.82c2.4 2.92 4.86 5.8 7.32 8.64q9.18 10.6 18.9 20.66 4.060 4.2 8.18 8.2h11v10.64q13.54 12.6 28 24.24h0.12c25.267 20.502 53.633 39.215 83.766 55.016l2.814 1.344q13.76 7.22 28.040 13.5z" />
<glyph unicode="&#xe945;" d="M468.76 774.5v-107.58h-191.1v-180.58h-86.58v180.58h-142c19.643 41.016 42.497 76.366 69.189 108.406l-0.669-0.826h73.48v72.46c25.267 20.502 53.633 39.215 83.766 55.016l2.814 1.344v-128.82z" />
<glyph unicode="&#xe946;" d="M277.66 903.32v-67.52c-53.391-46.149-96.719-102.341-127.329-165.819l-1.331-3.061h-100c19.667 41.015 42.546 76.364 69.265 108.4l-0.665-0.82h73.48v72.46c25.267 20.502 53.633 39.215 83.766 55.016l2.814 1.344z" />
<glyph unicode="&#xe947;" d="M156 621.080l-134.66-134.74h-19.92q1.14 15.4 3.18 30.52l104.24 104.22z" />
<glyph unicode="&#xe948;" d="M130 621.080q-6.78-18.76-12-38.18l-96.66-96.56h-19.92q1.14 15.4 3.18 30.52l104.24 104.22z" />
<glyph unicode="&#xe949;" d="M983.060 407.84c0-17.982-14.578-32.56-32.56-32.56s-32.56 14.578-32.56 32.56c0 17.982 14.578 32.56 32.56 32.56s32.56-14.578 32.56-32.56z" />
<glyph unicode="&#xe94a;" d="M973.56 475.66c0-12.736-10.324-23.060-23.060-23.060s-23.060 10.324-23.060 23.060c0 12.736 10.324 23.060 23.060 23.060s23.060-10.324 23.060-23.060z" />
<glyph unicode="&#xe94b;" d="M1024 448c0-282.77-229.23-512-512-512s-512 229.23-512 512c0 282.77 229.23 512 512 512s512-229.23 512-512z" />
<glyph unicode="&#xe94c;" d="M1024 448c0 202.988-118.13 378.38-289.392 461.196v-922.39c171.262 82.814 289.392 258.206 289.392 461.194z" />
<glyph unicode="&#xe94d;" d="M0 448c0-202.988 118.13-378.38 289.392-461.196v922.392c-171.262-82.816-289.392-258.208-289.392-461.196z" />
<glyph unicode="&#xe94e;" d="M601.044 381.218l89.042 44.522-44.52 22.26v44.522l-89.044-44.522 44.522 89.044h-44.522l-44.522 66.782-44.522-66.782h-44.522l44.522-89.044-89.044 44.522v-44.522l-44.52-22.26 89.042-44.522-22.26-44.522h89.044v-66.782h44.52v66.782h89.044z" />
<glyph unicode="&#xe94f;" glyph-name="loan-1" d="M506.25 545.789c36.102 36.094 36.102 94.82 0 130.938-36.148 36.148-94.719 36.156-130.914 0-36.172-36.172-36.195-94.742 0-130.938 36.227-36.227 94.938-35.984 130.914 0zM418.227 633.813c12.438 12.438 32.641 12.492 45.133 0 12.438-12.438 12.438-32.68 0-45.133-12.438-12.438-32.68-12.438-45.133 0-12.438 12.43-12.492 32.641 0 45.133zM568.047 483.992c-36.094-36.102-36.094-94.82 0-130.922 36.227-36.219 94.813-36.141 130.922 0 36.219 36.227 36.141 94.813 0 130.922-36.063 36.094-94.648 36.266-130.922 0zM656.078 395.961c-12.461-12.461-32.664-12.469-45.141 0-12.438 12.461-12.438 32.703 0 45.141 12.461 12.461 32.664 12.469 45.141 0 12.43-12.438 12.492-32.641 0-45.141zM420.211 395.625c11.844-11.844 31.055-11.852 42.898 0l193.313 193.313c11.852 11.852 11.852 31.055 0 42.898-11.844 11.844-31.047 11.844-42.891 0l-193.32-193.313c-11.844-11.852-11.844-31.055 0-42.898zM1013.82 228.187c-20.797 38.766-68.711 55.547-109.359 37.484l-66.711-29.625v264.141h143.313c28.242 0 41.148 35.359 19.508 53.547l-162.82 136.883v213.031c0 16.766-13.594 30.336-30.336 30.336h-118.133c-16.766 0-30.336-13.57-30.336-30.336v-62.742l-102.281 85.984c-11.266 9.477-27.742 9.477-39.023 0l-443.914-373.156c-21.586-18.148-8.758-53.547 19.516-53.547h143.336v-133.18c-40.367-12.578-68.539-40.445-78.219-78.141h-128.023c-16.75 0-30.336-13.586-30.336-30.328v-267.313c0-16.766 13.586-30.336 30.336-30.336 43.805 0 574.594-0.039 595.688-0.039 60.023 0 119.148 15.977 171.016 46.188l184.664 107.578c39.742 23.156 53.836 73.023 32.117 113.57zM176.477 560.852l360.672 303.188 132.617-111.461c19.695-16.563 49.844-2.523 49.844 23.211v97.531h57.477v-196.836c0-8.961 3.961-17.453 10.813-23.219l109.945-92.414h-90.43c-16.766 0-30.328-13.586-30.328-30.328v-321.406c-12.648-4.805-47.156-25.063-102.141-31.141 20.891 62.688-26.75 121.695-87.117 121.695h-101.070c-13.102 0-25.258 7.117-32.477 19.047-42.727 70.641-139.57 53.211-157.039 55.773v156.031c0 16.742-13.594 30.328-30.336 30.328zM60.664 228.203h93.953v-206.648h-93.953zM929.070 210.227c11.563 5.141 25.297 0.422 31.281-10.719 6.211-11.586 2.188-25.844-9.18-32.477l-184.664-107.578c-42.609-24.813-91.18-37.938-140.484-37.938h-410.742v237.023c0 62.711 80.727 55.055 81.961 55.281 28.422-1.070 84.891 6.945 105.148-26.508 18.305-30.25 49.852-48.313 84.367-48.313h101.070c17.289 0 31.359-14.070 31.359-31.359s-14.070-31.367-31.359-31.367h-172.758c-16.656 0-30.328-13.477-30.328-30.328 0-16.766 13.586-30.336 30.328-30.336h228.891c98.18 0 155.547 39.898 193.789 54.055z" />
<glyph unicode="&#xe950;" glyph-name="loan-2" d="M704.304 475.784c-47.84 78.752-118.29 154.136-164.852 213.554 33.198 42.648 21.684 105.296-26.052 132.94 12.902 18.496 28.676 26.334 30.69 27.28 18.39 7.424 33.026 45.010 14.090 77.808-11.796 20.434-32.924 32.634-56.516 32.634h-186.324c-23.594 0-44.722-12.2-56.518-32.63-18.968-32.854-4.24-70.408 14.090-77.808 2.016-0.948 17.79-8.786 30.69-27.28-47.442-27.474-59.364-89.948-26.178-132.778-77.126-98.31-217.424-238.308-217.424-369.448 0-218.798 188.734-276.31 407.854-261.39 48.244-73.796 131.588-122.666 226.146-122.666 148.878 0 270 121.122 270 270 0 145.426-115.576 264.346-259.696 269.784zM468.5 714.546h-120c-16.004 0-29.9 13.086-29.9 29.9 0 14.412 10.25 26.472 23.842 29.28 3.014-0.29 6.056-0.178 9.536 0.618h113.648c2.828-0.59 5.652-0.752 8.418-0.536 13.844-2.608 24.356-14.772 24.356-29.362 0-16.804-13.886-29.9-29.9-29.9zM315.338 900c196.896-0.918 188.342 2.476 191.078-2.996-15.226-9.724-39.38-29.322-55.058-62.658h-85.714c-15.678 33.334-39.83 52.934-55.058 62.658 0.976 1.95 2.564 2.996 4.752 2.996zM120 320.056c0 107.838 136.482 244.458 208.098 336.854 6.56-1.528 13.384-2.364 20.402-2.364 120.806 0.74 122.628-1.732 140.192 2.314 42.086-54.384 102.554-119.528 148.128-186.976-64.38-13.938-120.284-50.892-158.618-101.8-29.588 36.978-79.842 38.082-89.76 55.988-2.928 5.29 0.198 14.002 6.562 18.28 9.072 6.1 28.476 3.696 35.296-2.592 12.178-11.236 31.158-10.468 42.392 1.71s10.466 31.158-1.712 42.39c-9.292 8.572-21.076 14.69-33.818 18.268v2.416c0 16.568-13.432 30-30 30s-30-13.432-30-30v-4.424c-43.338-16.268-62.262-67.1-41.204-105.12 14.706-26.548 40.5-36.736 61.224-44.922 16.472-6.504 40.51-15.37 38.518-33.208-0.95-8.52-7.396-16.974-16.038-21.042-12.34-5.804-37.154-2.214-52.054 7.534-13.868 9.078-32.46 5.186-41.53-8.68-9.072-13.864-5.184-32.458 8.68-41.53 11.622-7.604 26.478-13.736 42.402-17.156v-3.75c0-24.212 27.162-38.222 46.858-24.814-0.166-31.002 4.9-61.272 14.962-90.126-172.604-5.282-318.98 29.798-318.98 202.75zM694-4c-115.794 0-210 94.206-210 210s94.206 210 210 210 210-94.206 210-210-94.206-210-210-210zM735.812 291.268l-127.28-127.28c-11.716-11.714-11.716-30.71 0-42.426s30.71-11.716 42.426 0l127.28 127.28c11.716 11.714 11.716 30.71 0 42.426-11.716 11.714-30.712 11.714-42.426 0zM649.402 250.538c11.676 11.676 11.676 30.608 0 42.286-11.676 11.676-30.608 11.676-42.284 0s-11.676-30.608 0-42.286c11.676-11.676 30.608-11.676 42.284 0zM734.538 165.402c-11.676-11.676-11.676-30.608 0-42.284s30.608-11.676 42.284 0 11.676 30.608 0 42.284c-11.676 11.678-30.606 11.678-42.284 0z" />
<glyph unicode="&#xe951;" glyph-name="car-loan" d="M357.204 814.578c-13.574 9.502-32.28 6.2-41.782-7.374l-140-200c-9.502-13.574-6.2-32.28 7.374-41.782s32.28-6.2 41.782 7.374l140 200c9.5 13.574 6.2 32.28-7.374 41.782zM834 336h-20l-51.28 123.076c-29.596 71.030-98.438 116.924-175.386 116.924h-72.618c16.208 34.654 25.284 73.284 25.284 114 0 148.878-121.122 270-270 270s-270-121.122-270-270c0-107.426 63.068-200.39 154.118-243.836l-28.022-112.092c-71.386-11.482-126.096-73.498-126.096-148.072v-120c0-16.568 13.432-30 30-30h73.532c13.584-57.26 65.112-100 126.468-100s112.884 42.74 126.468 100h311.066c13.584-57.26 65.112-100 126.468-100s112.884 42.74 126.468 100h73.53c16.568 0 30 13.432 30 30v80c0 104.766-85.234 190-190 190zM587.334 516c52.648 0 99.75-31.402 120-80l41.666-100h-269v180zM60 690c0 115.794 94.206 210 210 210s210-94.206 210-210-94.206-210-210-210-210 94.206-210 210zM420 465.612v-129.612h-231.576l22.624 90.5c18.984-4.244 38.708-6.5 58.952-6.5 55.464 0 107.068 16.818 150 45.612zM230-4c-38.598 0-70 31.402-70 70s31.402 70 70 70 70-31.402 70-70-31.402-70-70-70zM794-4c-38.598 0-70 31.402-70 70s31.402 70 70 70 70-31.402 70-70-31.402-70-70-70zM964 96h-43.532c-13.584 57.26-65.112 100-126.468 100s-112.884-42.74-126.468-100h-311.064c-13.584 57.26-65.112 100-126.468 100s-112.884-42.74-126.468-100h-43.532v90c0 49.626 40.374 90 90 90h684c71.682 0 130-58.318 130-130zM360 590c0-16.569-13.431-30-30-30s-30 13.431-30 30c0 16.569 13.431 30 30 30s30-13.431 30-30zM240 790c0-16.569-13.431-30-30-30s-30 13.431-30 30c0 16.569 13.431 30 30 30s30-13.431 30-30z" />
<glyph unicode="&#xe952;" glyph-name="loan-3" d="M319.731 406.452c31.075 5.122 47.429 4.14 108.604 4.14-142.396 169.538-106.032 426.659 81.438 549.388-169.464-2.050-306.7-140.71-306.7-310.846 0.002-98.053 45.58-185.655 116.658-242.682zM513.269 410.572h80.996c50.122 0 92.345-30.272 110.893-72.224 172.245-4.5 317.522 135.57 317.522 310.786 0.002 171.363-139.222 310.866-310.513 310.866-290.732 0-420.221-364.13-198.899-549.428zM682.050 808.315v25.55c0 16.645 13.493 30.152 30.118 30.152 16.645 0 30.118-13.507 30.118-30.152v-25.548c14.493 0 27.339-1.685 42.365-7.638v-0.020c15.139-5.989 29.033-15.378 40.478-27.6 11.384-12.141 10.762-31.238-1.385-42.614-12.663-11.826-31.802-10.288-42.566 1.387-9.517 10.152-22.508 16.041-35.679 16.181h-69.21c-18.896 0-34.314-15.292-34.314-34.374 0-18.936 15.4-34.352 34.314-34.352h71.76c52.142 0 94.569-42.476 94.569-94.678 0-46.476-34.107-94.656-100.332-94.656v-25.548c0-16.663-13.473-30.152-30.118-30.152-16.625 0-30.118 13.489-30.118 30.152v25.548c-11.754 0-39.906-1.859-71.58 20.141-13.673 9.507-17.067 28.282-7.57 41.972 9.477 13.689 28.25 17.087 41.904 7.578 7.863-5.51 17.922-9.296 27.789-9.387h75.475c19.036 0 34.314 15.424 34.314 34.352 0 18.956-15.4 34.374-34.334 34.374-26.54 0-45.219 0-71.76 0-52.124 0-94.549 42.454-94.549 94.656-0.002 48.451 36.513 94.676 100.312 94.676zM1004.411 209.137c-26.118 26.148-68.502 26.22-94.69 0l-98.264-98.376c-10.762-10.754-25.359-16.826-40.579-16.826h-255.803c-37.045 0-67.062 30.051-67.062 67.118 0 37.127 30.077 67.158 67.062 67.158h77.904c33.541 0 61.474 26.441 62.203 59.601 0.799 34.416-26.877 62.454-60.918 62.454-204.521 0-78.187 0.020-223.877 0.020-74.31 0-144.98-33.093-192.634-90.576l-36.3-46.14c-1.903-2.419-4.811-3.831-7.887-3.831h-113.489c-11.089 0-20.078-8.999-20.078-20.101v-233.536c0-11.103 8.989-20.103 20.078-20.103h775.696c19.516 0 38.209 7.758 51.983 21.548l156.634 156.811c26.162 26.172 26.122 68.566 0.020 94.778z" />
<glyph unicode="&#xe953;" glyph-name="play-store" d="M928.037 520.997l-748.671 427.954c-12.907 7.373-27.277 11.049-41.648 11.049-0.293 0-0.58-0.039-0.868-0.039-1.931-0.020-3.857-0.117-5.778-0.268-0.868-0.068-1.731-0.161-2.599-0.258-1.502-0.166-2.999-0.375-4.491-0.624-0.541-0.093-1.087-0.122-1.629-0.224l0.029-0.039c-9.328-1.721-18.432-5.008-26.892-9.918-25.912-15.033-41.862-42.725-41.862-72.68v-855.903c0-29.954 15.95-57.646 41.862-72.68 8.455-4.91 17.559-8.202 26.887-9.923l-0.024-0.034c0.488-0.093 0.98-0.122 1.463-0.2 1.604-0.273 3.213-0.497 4.827-0.668 0.809-0.088 1.614-0.176 2.423-0.239 1.897-0.151 3.789-0.239 5.691-0.263 0.322-0.005 0.639-0.044 0.961-0.044 14.37 0 28.74 3.677 41.648 11.049l748.671 427.959c26.175 14.965 42.33 42.798 42.33 72.958 0 0 0 0.015 0 0.020 0 0 0 0.015 0 0.020 0 0 0 0.015 0 0.020 0 0 0 0.015 0 0.020 0 30.154-16.155 57.988-42.33 72.958zM631.964 605.984l-74.44-97.655-189.391 248.471 263.831-150.816zM891.738 438.506l-523.605-299.305 327.846 430.109 195.755-111.894c3.389-1.936 5.495-5.564 5.495-9.45-0.005-3.901-2.111-7.529-5.491-9.46z" />
<glyph unicode="&#xe954;" glyph-name="apple" d="M370.51-64c-152.402 0.878-278.466 311.982-278.466 470.42 0 258.808 194.15 315.468 268.974 315.468 33.72 0 69.726-13.242 101.484-24.96 22.208-8.174 45.176-16.612 57.95-16.612 7.646 0 25.664 7.178 41.572 13.476 33.926 13.506 76.142 30.292 125.302 30.292 0.088 0 0.206 0 0.292 0 36.708 0 148.008-8.056 214.922-108.544l15.674-23.554-22.558-17.022c-32.226-24.316-91.026-68.672-91.026-156.534 0-104.062 66.592-144.082 98.584-163.33 14.122-8.496 28.74-17.256 28.74-36.416 0-12.51-99.844-281.132-244.834-281.132-35.478 0-60.556 10.664-82.676 20.068-22.382 9.522-41.69 17.724-73.594 17.724-16.172 0-36.622-7.646-58.272-15.762-29.586-11.042-63.074-23.582-101.072-23.582h-0.996zM702.686 960c3.776-136.152-93.594-230.608-190.85-224.684-16.026 108.654 97.244 224.684 190.85 224.684z" />
<glyph unicode="&#xe955;" glyph-name="download" d="M512 106.667h-298.667c-72.533 0-128 55.467-128 128v426.667c0 72.533 55.467 128 128 128h196.267c21.333 0 42.667-8.533 59.733-25.6l59.733-59.733h281.6c72.533 0 128-55.467 128-128v-85.333c0-25.6-17.067-42.667-42.667-42.667s-42.667 17.067-42.667 42.667v85.333c0 25.6-17.067 42.667-42.667 42.667h-298.667c-12.8 0-21.333 4.267-29.867 12.8l-72.533 72.533h-196.267c-25.6 0-42.667-17.067-42.667-42.667v-426.667c0-25.6 17.067-42.667 42.667-42.667h298.667c25.6 0 42.667-17.067 42.667-42.667s-17.067-42.667-42.667-42.667zM789.333 64c-4.267 0-12.8 0-17.067 4.267-4.267 0-8.533 4.267-12.8 8.533l-106.667 106.667c-17.067 17.067-17.067 42.667 0 59.733s42.667 17.067 59.733 0l34.133-34.133v153.6c0 25.6 17.067 42.667 42.667 42.667s42.667-17.067 42.667-42.667v-153.6l34.133 34.133c17.067 17.067 42.667 17.067 59.733 0s17.067-42.667 0-59.733l-106.667-106.667c-4.267-4.267-8.533-8.533-12.8-8.533-4.267-4.267-12.8-4.267-17.067-4.267z" />
<glyph unicode="&#xe956;" glyph-name="feedback" d="M439.155 375.197c-9.458 9.458-13.562 23.013-10.94 36.127l23.533 117.667c4.662 23.307 16.010 44.511 32.817 61.316l334.562 334.56c46.787 46.789 122.915 46.789 169.702 0 46.895-46.895 46.901-122.801 0-169.702l-334.56-334.558c-16.81-16.808-38.011-28.155-61.318-32.817l-117.667-23.533c-13.3-2.658-26.803 1.614-36.129 10.94zM585.107 427.014h0.020zM875.694 868.3l-334.56-334.56c-5.602-5.602-9.384-12.67-10.938-20.439l-11.768-58.833 58.833 11.768c7.77 1.554 14.838 5.336 20.441 10.94l334.558 334.558c15.632 15.632 15.636 40.931 0 56.567-15.632 15.634-40.931 15.634-56.567 0zM199.995-63.96c-22.091 0-39.999 17.908-39.999 39.999v44.017c-91.172 18.584-159.996 99.395-159.996 195.977v399.99c0 110.277 89.718 199.995 199.995 199.995h284.591c22.091 0 39.999-17.908 39.999-39.999s-17.908-39.999-39.999-39.999h-284.591c-66.166 0-119.997-53.831-119.997-119.997v-399.99c0-66.166 53.831-119.997 119.997-119.997 22.091 0 39.999-17.908 39.999-39.999v-33.101c26.099 9.348 48.461 27.835 63.234 53.221 7.164 12.308 20.329 19.879 34.571 19.879h486.18c66.166 0 119.997 53.831 119.997 119.997v380.606c0 22.091 17.908 39.999 39.999 39.999s39.999-17.908 39.999-39.999v-380.606c0-110.277-89.718-199.995-199.995-199.995h-464.816c-37.559-49.849-96.624-79.998-159.168-79.998zM759.981 176.034h-559.986c-22.091 0-39.999 17.908-39.999 39.999s17.908 39.999 39.999 39.999h559.986c22.091 0 39.999-17.908 39.999-39.999s-17.908-39.999-39.999-39.999zM279.993 336.030h-79.998c-22.091 0-39.999 17.908-39.999 39.999s17.908 39.999 39.999 39.999h79.998c22.091 0 39.999-17.908 39.999-39.999s-17.908-39.999-39.999-39.999zM279.993 496.026h-79.998c-22.091 0-39.999 17.908-39.999 39.999s17.908 39.999 39.999 39.999h79.998c22.091 0 39.999-17.908 39.999-39.999s-17.908-39.999-39.999-39.999z" />
<glyph unicode="&#xe957;" glyph-name="accept" d="M975 667c-41.8 88.6-108 163-191.4 215.2-116 72.4-253.4 95.4-386.6 64.6-133.2-30.6-246.6-111.4-319-227.4-72.6-116-95.6-253.2-64.8-386.6 30.8-133.2 111.6-246.6 227.4-319 81.6-51 175.2-78 271-78h6.2c95.4 1.2 188.2 28.8 268.6 79.6 23.4 14.8 30.2 45.6 15.4 69s-45.6 30.2-69 15.4c-64.6-41-139.4-63.2-216.2-64.2-78.8-1-155.8 20.8-223 62.6-93.4 58.4-158.4 149.6-183 256.8s-6.2 217.6 52.2 311c120.4 192.6 375.2 251.4 567.8 131 67.2-42 120.4-101.8 154-173 32.8-69.4 45.6-146.4 37-222.4-3-27.4 16.6-52.2 44.2-55.2 27.4-3 52.2 16.6 55.2 44.2 10.6 94.6-5.4 190.2-46 276.4zM677.4 621.6l-241.2-241.2-89.4 89.4c-19.6 19.6-51.2 19.6-70.8 0s-19.6-51.2 0-70.8l124.8-124.8c9.8-9.8 22.6-14.6 35.4-14.6s25.6 4.8 35.4 14.6l276.4 276.6c19.6 19.6 19.6 51.2 0 70.8-19.6 19.4-51.2 19.4-70.6 0z" />
<glyph unicode="&#xe958;" d="M897.519 78.91h-863.198c-9.322 0-16.879 7.557-16.879 16.879v0 817.85c0 9.322 7.557 16.879 16.879 16.879v0h959.634c9.322 0 16.879-7.557 16.879-16.879v0-721.301c-0.064-62.579-50.745-113.3-113.303-113.428h-0.012zM51.2 112.668h846.319c43.952 0.064 79.557 35.709 79.557 79.669v0 704.309h-925.876z" />
<glyph unicode="&#xe959;" d="M522.465 802.462c-115.297-0.064-208.738-93.545-208.738-208.851 0-115.345 93.506-208.851 208.851-208.851s208.851 93.506 208.851 208.851c0 0.079 0 0.158 0 0.237v-0.012c-0.192 115.262-93.675 208.626-208.963 208.626 0 0 0 0 0 0v0zM522.465 527.782c-36.356 0-65.829 29.472-65.829 65.829s29.472 65.829 65.829 65.829c36.356 0 65.829-29.472 65.829-65.829v0c-0.064-36.246-29.461-65.604-65.716-65.604-0.040 0-0.079 0-0.119 0h0.006z" />
<glyph unicode="&#xe95a;" d="M522.465 368.105c-124.667 0-225.73 101.063-225.73 225.73s101.063 225.73 225.73 225.73c124.667 0 225.73-101.063 225.73-225.73v0c-0.192-124.59-101.14-225.538-225.712-225.73h-0.018zM522.465 785.807c-106.023 0-191.972-85.949-191.972-191.972s85.949-191.972 191.972-191.972c106.023 0 191.972 85.949 191.972 191.972v0c-0.192 105.946-86.026 191.78-191.953 191.972h-0.018zM522.465 511.128c-45.678 0-82.708 37.029-82.708 82.708s37.029 82.708 82.708 82.708c45.678 0 82.708-37.029 82.708-82.708v0c-0.064-45.652-37.055-82.644-82.702-82.708h-0.006zM522.465 642.785c-27.034 0-48.949-21.915-48.949-48.949s21.915-48.949 48.949-48.949c27.034 0 48.949 21.915 48.949 48.949v0c0 27.034-21.915 48.949-48.949 48.949v0z" />
<glyph unicode="&#xe95b;" d="M745.495 226.546h-446.059c-9.322 0-16.879 7.557-16.879 16.879s7.557 16.879 16.879 16.879v0h446.059c9.322 0 16.879-7.557 16.879-16.879s-7.557-16.879-16.879-16.879v0z" />
<glyph unicode="&#xe95c;" d="M429.967 158.354c-9.322 0-16.879 7.557-16.879 16.879v0 147.636c0 9.322 7.557 16.879 16.879 16.879s16.879-7.557 16.879-16.879v0-147.636c0-9.322-7.557-16.879-16.879-16.879v0z" />
<glyph unicode="&#xe95d;" d="M162.377 788.508c-9.322 0-16.879 7.557-16.879 16.879v0c0.004 4.659 1.896 8.876 4.951 11.928v0c3.111 2.921 7.31 4.716 11.928 4.716s8.817-1.795 11.937-4.725l-0.009 0.009c3.056-3.052 4.947-7.269 4.951-11.927v-0.001c-0.030-4.655-1.915-8.864-4.952-11.929l0.001 0.001c-3.052-3.056-7.269-4.947-11.927-4.951h-0.001z" />
<glyph unicode="&#xe95e;" d="M162.377 192.45c-4.655 0.030-8.864 1.915-11.929 4.952l0.001-0.001c-3.056 3.052-4.947 7.269-4.951 11.927v0.001c0.030 4.655 1.915 8.864 4.952 11.929l-0.001-0.001c3.111 2.921 7.31 4.716 11.928 4.716s8.817-1.795 11.937-4.725l-0.009 0.009c3.036-3.064 4.921-7.273 4.951-11.922v-0.006c0-9.322-7.557-16.879-16.879-16.879v0z" />
<glyph unicode="&#xe95f;" d="M877.714 788.508c-0.033 0-0.073 0-0.113 0-9.322 0-16.879 7.557-16.879 16.879 0 0 0 0 0 0v0c0.004 4.659 1.896 8.876 4.951 11.928v0c3.128 2.929 7.346 4.727 11.984 4.727s8.856-1.799 11.994-4.736l-0.010 0.009c3.056-3.052 4.947-7.269 4.951-11.927v-0.001c0-9.322-7.557-16.879-16.879-16.879v0z" />
<glyph unicode="&#xe960;" d="M877.714 192.45c-0.001 0-0.003 0-0.005 0-4.694 0-8.946 1.891-12.037 4.953l0.001-0.001c-3.056 3.052-4.947 7.269-4.951 11.927v0.001c0.030 4.655 1.915 8.864 4.952 11.929l-0.001-0.001c3.128 2.929 7.346 4.727 11.984 4.727s8.856-1.799 11.994-4.736l-0.010 0.009c3.036-3.064 4.921-7.273 4.951-11.922v-0.006c-0.004-4.659-1.896-8.876-4.951-11.928v0c-3.064-3.036-7.273-4.921-11.922-4.951h-0.006z" />
<glyph unicode="&#xe961;" d="M162.377 95.789h136.946v-115.341h-136.946z" />
<glyph unicode="&#xe962;" d="M299.323-36.431h-136.946c-9.322 0-16.879 7.557-16.879 16.879v0 115.341c0 9.322 7.557 16.879 16.879 16.879v0h136.946c9.322 0 16.879-7.557 16.879-16.879v0-115.341c0-9.322-7.557-16.879-16.879-16.879v0zM179.256-2.673h103.188v81.582h-103.188z" />
<glyph unicode="&#xe963;" d="M731.429 95.789h136.946v-115.341h-136.946z" />
<glyph unicode="&#xe964;" d="M868.262-36.431h-136.833c-9.322 0-16.879 7.557-16.879 16.879v0 115.341c0 9.322 7.557 16.879 16.879 16.879v0h136.833c9.322 0 16.879-7.557 16.879-16.879v0-115.341c0-9.322-7.557-16.879-16.879-16.879v0zM748.308-2.673h103.075v81.582h-103.075z" />
<glyph unicode="&#xe965;" d="M313.28 324.16h75.36v-224.8h-75.36z" />
<glyph unicode="&#xe966;" d="M476.48 323.68h75.36v-224.8h-75.36z" />
<glyph unicode="&#xe967;" d="M645.92 323.68h75.36v-224.8h-75.36z" />
<glyph unicode="&#xe968;" d="M512.96 591.040l-276-207.040h552zM511.36 435.84c-20.059 0-36.32 16.261-36.32 36.32s16.261 36.32 36.32 36.32c20.059 0 36.32-16.261 36.32-36.32 0-0.056 0-0.112 0-0.169v0.009c0-0.001 0-0.002 0-0.003 0-19.802-15.917-35.886-35.655-36.157h-0.025z" />
<glyph unicode="&#xe969;" d="M438.88 748.64h-2.72c-8.837 0-16 7.163-16 16s7.163 16 16 16v0h2.72c8.837 0 16-7.163 16-16s-7.163-16-16-16v0zM331.84 748.64h-2.72c-8.837 0-16 7.163-16 16s7.163 16 16 16v0h2.72c8.837 0 16-7.163 16-16s-7.163-16-16-16v0zM224.8 748.64h-2.56c-8.837 0-16 7.163-16 16s7.163 16 16 16v0h2.56c8.837 0 16-7.163 16-16s-7.163-16-16-16v0z" />
<glyph unicode="&#xe96a;" d="M848 200.32h-64c-8.837 0-16 7.163-16 16s7.163 16 16 16v0h64c32.394 0.091 58.629 26.326 58.72 58.711v552.169h-787.52v-88.32c0-8.837-7.163-16-16-16s-16 7.163-16 16v0 104.32c0 8.837 7.163 16 16 16v0h819.52c8.837 0 16-7.163 16-16v0-568.16c-0.091-50.067-40.653-90.629-90.711-90.72h-0.009z" />
<glyph unicode="&#xe96b;" d="M256 200.32h-152.8c-8.837 0-16 7.163-16 16v0 470.080c0 8.837 7.163 16 16 16v0h725.76c8.837 0 16-7.163 16-16s-7.163-16-16-16v0h-709.76v-438.080h136.8c8.837 0 16-7.163 16-16s-7.163-16-16-16v0z" />
<glyph unicode="&#xe96c;" d="M788.96 368h-552c-8.837 0-16 7.163-16 16 0 5.217 2.496 9.85 6.36 12.771l0.040 0.029 276 206.4c2.641 1.998 5.98 3.2 9.6 3.2s6.959-1.202 9.64-3.229l-0.040 0.029 276-206.4c3.923-2.949 6.433-7.594 6.433-12.825 0-1.823-0.305-3.575-0.867-5.208l0.034 0.112c-2.202-6.379-8.155-10.88-15.159-10.88-0.015 0-0.029 0-0.044 0h0.002zM285.12 400h455.84l-228 171.040z" />
<glyph unicode="&#xe96d;" d="M720 88.16c-8.837 0-16 7.163-16 16v0 160c0 8.837 7.163 16 16 16s16-7.163 16-16v0-160c0-8.837-7.163-16-16-16v0z" />
<glyph unicode="&#xe96e;" d="M645.92 88.16c-8.837 0-16 7.163-16 16v0 160c0 8.837 7.163 16 16 16s16-7.163 16-16v0-160c0-8.837-7.163-16-16-16v0z" />
<glyph unicode="&#xe96f;" d="M778.080 20.96h-530.080c-8.837 0-16 7.163-16 16v0 62.56c0 8.837 7.163 16 16 16v0h530.080c8.837 0 16-7.163 16-16v0-62.56c0-8.837-7.163-16-16-16v0zM264 52.96h498.080v30.56h-498.080z" />
<glyph unicode="&#xe970;" d="M313.28 88.16c-8.837 0-16 7.163-16 16v0 160c0 8.837 7.163 16 16 16s16-7.163 16-16v0-160c0-8.837-7.163-16-16-16v0z" />
<glyph unicode="&#xe971;" d="M388.8 88.16c-8.837 0-16 7.163-16 16v0 160c0 8.837 7.163 16 16 16s16-7.163 16-16v0-160c0-8.837-7.163-16-16-16v0z" />
<glyph unicode="&#xe972;" d="M392.32 308.32h-84.96c-8.837 0-16 7.163-16 16s7.163 16 16 16v0h84.96c8.837 0 16-7.163 16-16s-7.163-16-16-16v0z" />
<glyph unicode="&#xe973;" d="M476.48 88.16c-8.837 0-16 7.163-16 16v0 160c0 8.837 7.163 16 16 16s16-7.163 16-16v0-160c0-8.837-7.163-16-16-16v0z" />
<glyph unicode="&#xe974;" d="M551.84 88.16c-8.837 0-16 7.163-16 16v0 160c0 8.837 7.163 16 16 16s16-7.163 16-16v0-160c0-8.837-7.163-16-16-16v0z" />
<glyph unicode="&#xe975;" d="M555.52 308.32h-84.96c-8.837 0-16 7.163-16 16s7.163 16 16 16v0h84.96c8.837 0 16-7.163 16-16s-7.163-16-16-16v0z" />
<glyph unicode="&#xe976;" d="M724.16 308.32h-84.16c-8.837 0-16 7.163-16 16s7.163 16 16 16v0h84.96c8.837 0 16-7.163 16-16s-7.163-16-16-16v0z" />
<glyph unicode="&#xe977;" d="M512 419.84c-27.624 1.576-49.428 24.362-49.428 52.24s21.804 50.664 49.289 52.234l0.139 0.006c8.837 0 16-7.163 16-16s-7.163-16-16-16v0c-11.222 0-20.32-9.098-20.32-20.32s9.098-20.32 20.32-20.32c11.222 0 20.32 9.098 20.32 20.32v0c0 8.837 7.163 16 16 16s16-7.163 16-16v0c-0.091-28.827-23.48-52.16-52.32-52.16 0 0 0 0 0 0v0z" />
<glyph unicode="&#xe978;" d="M340.64 586.56h-136.8c-8.837 0-16 7.163-16 16s7.163 16 16 16v0h136.8c8.837 0 16-7.163 16-16s-7.163-16-16-16v0z" />
<glyph unicode="&#xe979;" d="M254.24 505.76h-50.4c-8.837 0-16 7.163-16 16s7.163 16 16 16v0h50.4c8.837 0 16-7.163 16-16s-7.163-16-16-16v0z" />
<glyph unicode="&#xe97a;" d="M697.92 440.8c0-107.011-86.749-193.76-193.76-193.76s-193.76 86.749-193.76 193.76c0 107.011 86.749 193.76 193.76 193.76s193.76-86.749 193.76-193.76z" />
<glyph unicode="&#xe97b;" d="M301.28 426.24h-78.88c-8.837 0-16 7.163-16 16s7.163 16 16 16v0h78.88c8.837 0 16-7.163 16-16s-7.163-16-16-16v0z" />
<glyph unicode="&#xe97c;" d="M504.16 72c-204.437 0.182-370.127 165.816-370.4 370.214v0.026c0 8.837 7.163 16 16 16s16-7.163 16-16v0c0.273-186.751 151.637-338.058 338.383-338.24h0.017c8.837 0 16-7.163 16-16s-7.163-16-16-16v0z" />
<glyph unicode="&#xe97d;" d="M149.76 426.24c-8.837 0-16 7.163-16 16v0c0.273 204.424 165.963 370.058 370.383 370.24h0.017c8.837 0 16-7.163 16-16s-7.163-16-16-16v0c-186.764-0.182-338.127-151.489-338.4-338.214v-0.026c0-8.837-7.163-16-16-16v0z" />
<glyph unicode="&#xe97e;" d="M504.16 618.56c-8.837 0-16 7.163-16 16v0 93.28c0 8.837 7.163 16 16 16s16-7.163 16-16v0-93.28c0-8.837-7.163-16-16-16v0z" />
<glyph unicode="&#xe97f;" d="M504.16 72c-8.837 0-16 7.163-16 16s7.163 16 16 16v0c186.695 0.273 337.967 151.545 338.24 338.213v0.027c0 8.837 7.163 16 16 16s16-7.163 16-16v0c-0.273-204.368-165.872-369.967-370.213-370.24h-0.027z" />
<glyph unicode="&#xe980;" d="M858.4 426.24c-8.837 0-16 7.163-16 16v0c-0.273 186.695-151.545 337.967-338.213 338.24h-0.027c-8.837 0-16 7.163-16 16s7.163 16 16 16v0c204.368-0.273 369.967-165.872 370.24-370.213v-0.027c0-8.837-7.163-16-16-16v0z" />
<glyph unicode="&#xe981;" d="M149.76 426.24h-52.96c-8.837 0-16 7.163-16 16s7.163 16 16 16v0h52.96c8.837 0 16-7.163 16-16s-7.163-16-16-16v0z" />
<glyph unicode="&#xe982;" d="M912 426.24h-152c-8.837 0-16 7.163-16 16s7.163 16 16 16v0h152c8.837 0 16-7.163 16-16s-7.163-16-16-16v0z" />
<glyph unicode="&#xe983;" d="M504.16 14.24c-8.837 0-16 7.163-16 16v0 156c0 8.837 7.163 16 16 16s16-7.163 16-16v0-156c0-8.837-7.163-16-16-16v0z" />
<glyph unicode="&#xe984;" d="M504.16 782.24c-8.837 0-16 7.163-16 16v0 52.96c0 8.837 7.163 16 16 16s16-7.163 16-16v0-52.96c0-8.837-7.163-16-16-16v0z" />
<glyph unicode="&#xe985;" d="M504 231.040c-115.847 0-209.76 93.913-209.76 209.76s93.913 209.76 209.76 209.76v0c8.837 0 16-7.163 16-16s-7.163-16-16-16v0c-97.953-0.409-177.201-79.909-177.201-177.919 0-98.263 79.657-177.92 177.92-177.92s177.92 79.657 177.92 177.92c0 63.64-33.413 119.477-83.653 150.923l-0.746 0.435c-4.561 2.878-7.547 7.89-7.547 13.6 0 8.852 7.176 16.027 16.027 16.027 3.142 0 6.072-0.904 8.546-2.466l-0.066 0.039c59.633-37.676 98.661-103.241 98.661-177.922 0-115.847-93.913-209.76-209.76-209.76-0.317 0-0.633 0.001-0.95 0.002h0.049z" />
<glyph unicode="&#xe986;" d="M507.36 305.76c-8.837 0-16 7.163-16 16v0 238.24c0 8.837 7.163 16 16 16s16-7.163 16-16v0-238.24c0-8.837-7.163-16-16-16v0z" />
<glyph unicode="&#xe987;" d="M547.36 417.12h-3.2l-88.32 18.24c-1.576 0.345-2.965 0.841-4.266 1.488l0.106-0.048c-25.92 13.6-39.040 30.24-39.040 49.28v2.4c2.597 34.265 31.038 61.083 65.742 61.083 1.414 0 2.817-0.044 4.208-0.132l-0.19 0.010h43.36c1.246 0.084 2.7 0.132 4.166 0.132 34.676 0 63.083-26.839 65.581-60.877l0.013-0.216c0-8.837-7.163-16-16-16s-16 7.163-16 16v0c-2.783 16.624-17.065 29.136-34.268 29.136-1.23 0-2.445-0.064-3.642-0.189l0.15 0.013h-43.36c-1.047 0.112-2.262 0.176-3.492 0.176-17.203 0-31.485-12.512-34.24-28.933l-0.028-0.204v-2.4c0-5.6 7.36-12.96 20-19.84l85.92-18.24c8.165-0.841 14.48-7.683 14.48-16 0-8.881-7.199-16.080-16.080-16.080-0.563 0-1.12 0.029-1.669 0.086l0.069-0.006z" />
<glyph unicode="&#xe988;" d="M525.76 333.92h-43.36c-1.198-0.078-2.597-0.122-4.006-0.122-34.76 0-63.237 26.905-65.741 61.026l-0.013 0.216c0 8.837 7.163 16 16 16s16-7.163 16-16v0c2.716-16.7 17.034-29.294 34.293-29.294 1.221 0 2.427 0.063 3.616 0.186l-0.149-0.012h43.36c1.162-0.14 2.508-0.22 3.872-0.22 17.181 0 31.407 12.655 33.865 29.152l0.023 0.188v2.24c0 4.32-5.44 12.16-20.8 20.48l-84.48 17.28c-7.532 1.546-13.117 8.121-13.117 16 0 9.012 7.305 16.317 16.317 16.317 1.132 0 2.238-0.115 3.305-0.335l-0.105 0.018 86.72-19.040c1.636-0.345 3.080-0.842 4.438-1.491l-0.118 0.051c32.96-17.44 39.84-36.64 39.84-49.92v-2.24c-2.837-34.047-31.17-60.605-65.705-60.605-1.426 0-2.842 0.045-4.246 0.135l0.192-0.010z" />
<glyph unicode="&#xe989;" d="M972.35 544.661c-47.262 45.011-92.61 54.913-153.375 54.913-2.31 0.087-5.023 0.136-7.748 0.136-55.984 0-107.094-20.869-145.974-55.253l0.234 0.203v5.176c2.363 240.809-147.861 326.33-147.861 326.33 206.713-2.251 382.593-149.324 454.724-331.506z" />
<glyph unicode="&#xe98a;" d="M51.538 543.648c47.262 45.011 92.498 55.026 153.375 55.026 2.229 0.081 4.847 0.127 7.476 0.127 56.052 0 107.221-20.91 146.131-55.355l-0.233 0.202v5.176c-2.363 240.809 148.086 326.33 148.086 326.33h0.563c-207.388-2.025-383.156-149.099-455.399-331.506z" />
<glyph unicode="&#xe98b;" d="M358.287 530.483c-3.433 0.022-6.574 1.25-9.026 3.282l0.024-0.019c-36.164 32.223-84.108 51.912-136.651 51.912-2.755 0-5.498-0.054-8.227-0.161l0.392 0.012c-57.164 0-99.024-8.44-143.698-51.2-2.511-2.351-5.898-3.796-9.621-3.796-7.783 0-14.092 6.309-14.092 14.092 0 4.059 1.716 7.718 4.463 10.289l0.008 0.007c51.2 49.062 100.262 58.852 162.94 58.852 2.087 0.067 4.541 0.105 7.005 0.105 59.766 0 114.309-22.357 155.724-59.165l-0.239 0.208c2.979-2.574 4.854-6.357 4.854-10.578 0-7.672-6.192-13.898-13.851-13.953h-0.005z" />
<glyph unicode="&#xe98c;" d="M665.375 530.483c-3.435 0.002-6.582 1.234-9.024 3.281l0.022-0.018c-36.149 32.221-84.078 51.909-136.605 51.909-2.732 0-5.451-0.053-8.157-0.159l0.389 0.012c-57.276 0-99.137-8.44-143.81-51.2-2.522-2.375-5.929-3.834-9.677-3.834-7.804 0-14.13 6.326-14.13 14.13 0 4.056 1.709 7.713 4.446 10.29l0.007 0.007c51.2 49.062 100.375 58.852 163.052 58.852 2.087 0.067 4.541 0.105 7.005 0.105 59.766 0 114.309-22.357 155.724-59.165l-0.239 0.208c2.984-2.574 4.862-6.36 4.862-10.585 0-3.437-1.243-6.584-3.303-9.015l0.017 0.020c-2.534-2.969-6.279-4.839-10.462-4.839-0.041 0-0.081 0-0.122 0.001h0.006z" />
<glyph unicode="&#xe98d;" d="M972.462 530.483c-0.008 0-0.018 0-0.028 0-3.445 0-6.591 1.279-8.989 3.389l0.015-0.013c-36.161 32.155-84.069 51.798-136.565 51.798-2.746 0-5.479-0.054-8.199-0.16l0.391 0.012c-57.164 0-99.024-8.44-143.81-51.2-2.511-2.351-5.898-3.796-9.621-3.796-7.783 0-14.092 6.309-14.092 14.092 0 4.059 1.716 7.718 4.463 10.289l0.008 0.007c51.313 49.062 100.375 58.852 163.052 58.852 2.104 0.068 4.578 0.107 7.061 0.107 59.712 0 114.201-22.36 155.552-59.164l-0.235 0.206c2.979-2.574 4.854-6.357 4.854-10.578 0-7.672-6.192-13.898-13.851-13.953h-0.005z" />
<glyph unicode="&#xe98e;" d="M972.462 530.483c-0.018 0-0.038 0-0.059 0-5.821 0-10.803 3.594-12.848 8.684l-0.033 0.093c-76.181 193.322-256 323.179-447.522 323.179s-371.341-129.857-447.634-323.179c-2.308-4.709-7.067-7.893-12.569-7.893-7.706 0-13.953 6.247-13.953 13.953 0 1.492 0.234 2.93 0.668 4.278l-0.027-0.099c80.345 203.9 270.066 340.846 473.516 340.846s393.058-136.946 473.403-340.846c0.615-1.509 0.972-3.261 0.972-5.095 0-5.848-3.627-10.85-8.755-12.877l-0.094-0.033c-1.496-0.632-3.235-1.003-5.060-1.013h-0.004z" />
<glyph unicode="&#xe98f;" d="M665.037 535.659c-7.671 0.127-13.841 6.375-13.841 14.064 0 0.001 0 0.001 0 0.002v0c1.125 119.842-37.134 198.836-69.542 243.96-19.338 27.911-43.049 51.264-70.396 69.619l-0.946 0.598c-3.894 2.519-6.435 6.84-6.435 11.755 0 7.706 6.247 13.953 13.953 13.953 2.307 0 4.483-0.56 6.4-1.551l-0.078 0.037c6.414-3.713 157.538-92.498 154.95-338.595-0.063-7.658-6.286-13.841-13.953-13.841-0.040 0-0.079 0-0.119 0h0.006z" />
<glyph unicode="&#xe990;" d="M358.287 535.659c-7.644 0-13.841 6.197-13.841 13.841v0c-2.476 246.098 148.424 334.882 154.838 338.595 1.839 0.955 4.015 1.515 6.322 1.515 7.706 0 13.953-6.247 13.953-13.953 0-4.915-2.541-9.236-6.38-11.721l-0.055-0.033c-28.309-18.933-52.024-42.29-70.773-69.349l-0.569-0.868c-32.408-45.011-70.667-123.78-69.542-243.96 0-0.034 0-0.074 0-0.114 0-7.627-6.12-13.825-13.717-13.951h-0.012z" />
<glyph unicode="&#xe991;" d="M512 862.439c-7.706 0-13.953 6.247-13.953 13.953v0 34.433c-0.036 0.375-0.056 0.811-0.056 1.252 0 7.706 6.247 13.953 13.953 13.953s13.953-6.247 13.953-13.953c0-0.441-0.020-0.877-0.060-1.307l0.004 0.055v-34.433c0 0 0 0 0 0 0-7.667-6.183-13.889-13.835-13.953h-0.006z" />
<glyph unicode="&#xe992;" d="M510.762 246.463c-7.644 0-13.841 6.197-13.841 13.841v0 339.045c-0.036 0.375-0.056 0.811-0.056 1.252 0 7.706 6.247 13.953 13.953 13.953s13.953-6.247 13.953-13.953c0-0.441-0.020-0.877-0.060-1.307l0.004 0.055v-339.045c0 0 0 0 0 0 0-7.644-6.197-13.841-13.841-13.841-0.040 0-0.079 0-0.119 0h0.006z" />
<glyph unicode="&#xe993;" d="M405.887-26.416c-85.489 0.064-154.774 69.349-154.838 154.832v0.006c0 27.593 22.369 49.962 49.962 49.962s49.962-22.369 49.962-49.962v0c-0.036-0.743-0.056-1.613-0.056-2.488 0-30.39 24.636-55.026 55.026-55.026s55.026 24.636 55.026 55.026c0 0.875-0.020 1.745-0.061 2.61l0.005-0.123v95.986c1.3 26.554 23.146 47.592 49.906 47.592s48.606-21.037 49.901-47.476l0.005-0.116v-95.986c-0.064-85.489-69.349-154.774-154.832-154.838h-0.006zM301.011 150.477c-12.429 0-22.505-10.076-22.505-22.505v0c0-70.102 56.829-126.931 126.931-126.931s126.931 56.829 126.931 126.931v0 96.436c0.286 1.346 0.45 2.893 0.45 4.479 0 12.429-10.076 22.505-22.505 22.505s-22.505-10.076-22.505-22.505c0-1.585 0.164-3.132 0.476-4.625l-0.026 0.146v-95.986c0-45.74-37.080-82.82-82.82-82.82s-82.82 37.080-82.82 82.82v0c-0.236 11.928-9.718 21.567-21.561 22.054l-0.045 0.001z" />
<glyph unicode="&#xe994;" d="M64.756 709.38h678.94v-98.956h-678.94z" />
<glyph unicode="&#xe995;" d="M399.504 394.504h-32.152c-2.588 0-4.688 2.1-4.688 4.688v32.148c0 2.588 2.1 4.688 4.688 4.688h32.152c2.588 0 4.688-2.1 4.688-4.688v-32.148c0-2.588-2.1-4.688-4.688-4.688z" />
<glyph unicode="&#xe996;" d="M236.020 334.672c0-5.52-4.48-9.996-10-9.996l-109.464 0.036c-16.536 0.004-32.080 6.448-43.768 18.148-11.692 11.696-18.124 27.248-18.116 43.784l0.104 322.856c0.004 16.536 6.448 32.080 18.148 43.768 11.688 11.684 27.232 18.116 43.752 18.116l575.152-0.188c16.536-0.004 32.080-6.452 43.768-18.148 11.692-11.696 18.124-27.248 18.116-43.784l-0.032-98.956c0-5.52-4.48-9.996-10-9.996 0 0 0 0-0.004 0-5.524 0.004-9.996 4.48-9.996 10.004l0.032 98.956c0.004 11.196-4.352 21.72-12.264 29.64-7.912 7.916-18.432 12.28-29.628 12.284l-575.14 0.188c-11.192 0-21.708-4.356-29.62-12.264-7.916-7.916-12.28-18.436-12.284-29.628l-0.104-322.856c-0.004-11.192 4.352-21.72 12.264-29.64 7.908-7.916 18.432-12.28 29.628-12.284l109.46-0.036c5.524 0 9.996-4.48 9.996-10.004zM969.332 509.38v-322.856c0-34.136-27.768-61.908-61.908-61.908h-575.124c-34.136 0-61.912 27.772-61.912 61.908v322.856c0 34.136 27.772 61.912 61.912 61.912h575.124c34.14-0.004 61.908-27.776 61.908-61.912zM949.332 509.38c0 23.108-18.8 41.912-41.908 41.912h-575.124c-23.108 0-41.912-18.8-41.912-41.912v-322.856c0-23.108 18.8-41.908 41.912-41.908h575.124c23.104 0 41.908 18.8 41.908 41.908zM324.98 387.58v55.368c0 16.964 13.8 30.764 30.76 30.764h55.372c16.96 0 30.764-13.8 30.764-30.764v-55.368c0-16.964-13.8-30.76-30.764-30.76h-55.368c-16.964 0-30.764 13.8-30.764 30.76zM344.98 387.58c0-5.932 4.828-10.76 10.76-10.76h55.372c5.932 0 10.764 4.828 10.764 10.76v55.368c0 5.936-4.828 10.764-10.764 10.764h-55.368c-5.932 0-10.76-4.828-10.76-10.764v-55.368zM221.332 539.26h-101.58c-5.524 0-10-4.476-10-10s4.476-10 10-10h101.58c5.524 0 10 4.476 10 10s-4.476 10-10 10zM221.332 480.268h-101.58c-5.524 0-10-4.476-10-10s4.476-10 10-10h101.58c5.524 0 10 4.476 10 10s-4.476 10-10 10zM341.66 284.536c-5.524 0-10-4.476-10-10s4.476-10 10-10h90.216c5.524 0 10 4.476 10 10s-4.476 10-10 10zM572.524 224.396h-230.864c-5.524 0-10-4.476-10-10s4.476-10 10-10h230.864c5.524 0 10 4.476 10 10s-4.476 10-10 10zM572.524 284.536h-90.216c-5.524 0-10-4.476-10-10s4.476-10 10-10h90.216c5.524 0 10 4.476 10 10s-4.476 10-10 10zM713.168 284.536h-90.216c-5.524 0-10-4.476-10-10s4.476-10 10-10h90.216c5.524 0 10 4.476 10 10s-4.476 10-10 10zM853.816 284.536h-90.216c-5.524 0-10-4.476-10-10s4.476-10 10-10h90.216c5.524 0 10 4.476 10 10s-4.476 10-10 10z" />
<glyph unicode="&#xe997;" d="M674 501.132c-9.94 0-18-8.060-18-18v-61.496c0-9.94 8.060-18 18-18s18 8.060 18 18v61.496c0 9.94-8.060 18-18 18z" />
<glyph unicode="&#xe998;" d="M692 365.952c0-9.941-8.059-18-18-18s-18 8.059-18 18c0 9.941 8.059 18 18 18s18-8.059 18-18z" />
<glyph unicode="&#xe999;" d="M771 501.132c-9.94 0-18-8.060-18-18v-61.496c0-9.94 8.060-18 18-18s18 8.060 18 18v61.496c0 9.94-8.060 18-18 18z" />
<glyph unicode="&#xe99a;" d="M789 365.952c0-9.941-8.059-18-18-18s-18 8.059-18 18c0 9.941 8.059 18 18 18s18-8.059 18-18z" />
<glyph unicode="&#xe99b;" d="M868 501.132c-9.94 0-18-8.060-18-18v-61.496c0-9.94 8.060-18 18-18s18 8.060 18 18v61.496c0 9.94-8.060 18-18 18z" />
<glyph unicode="&#xe99c;" d="M886 365.952c0-9.941-8.059-18-18-18s-18 8.059-18 18c0 9.941 8.059 18 18 18s18-8.059 18-18z" />
<glyph unicode="&#xe99d;" d="M564.688 624h-489.376l244.688 263.52z" />
<glyph unicode="&#xe99e;" d="M909.584 489.040l-61.584 61.584v53.6l33.888 67.776-3.584 7.152c-12.592 25.2-37.92 40.848-66.080 40.848h-6.496c-13.6 10.128-52.416 32-133.728 32h-16v-16c0-5.408 0.16-10.832 0.48-16.224-23.152-1.024-44.080-12.496-57.152-31.216l-213.744 227.104c-16.944 18-40.848 28.336-65.584 28.336s-48.64-10.336-65.584-28.336l-218.496-232.16c-12.848-13.648-19.92-31.488-19.92-50.224 0-37.232 28-67.728 64-72.336v-320.944h-64v-256h139.264c33.104-20.96 71.168-32 110.432-32h214.304c10.016 0 19.6 3.44 27.664 9.136 10.944-5.648 23.184-9.136 36.336-9.136h384c44.112 0 80 35.888 80 80v219.456c0 89.744-34.96 174.144-98.416 237.584zM845.744 671.264l-23.632-47.264h-25.648c10.256 19.856 16.608 41.376 18.688 63.664 12.24-0.864 23.36-6.704 30.592-16.4zM816 592v-32h-160v32zM783.792 696.224c-1.376-25.456-9.504-49.952-23.728-71.28l-0.624-0.944h-45.408c-14.576 29.808-23.344 62.512-25.488 95.664 56.032-2.416 84.672-16.688 95.248-23.44zM659.776 688h0.352c3.744-21.968 10.016-43.504 18.688-64h-28.912l-23.632 47.264c7.808 10.464 20.080 16.736 33.504 16.736zM464 48h-96v32h96zM464 112h-96.624c-0.88 11.040-3.152 21.776-6.816 32h103.44zM464 176h-120.56c-5.408 7.296-11.536 14.112-18.512 20.128 5.872 7.36 14.608 11.872 24.304 11.872h114.768zM464 240h-40.896c5.504 9.456 8.896 20.288 8.896 32 0 17.648-14.352 32-32 32h-32v256h96zM176 560h96v-256.896c-35.328-3.28-68.816-17.296-96-39.68zM304 560h32v-256h-32zM496 560h32v-111.808c-12.432-17.104-23.104-35.2-32-54.144zM560 560.944c28.624 3.68 51.92 23.744 60.336 50.608l3.664-7.328v-53.6l-61.584-61.584c-0.848-0.848-1.568-1.808-2.416-2.656zM48 633.28c0 10.56 3.984 20.608 11.216 28.288l218.512 232.16c10.928 11.616 26.32 18.272 42.272 18.272s31.344-6.656 42.272-18.272l218.512-232.16c7.232-7.68 11.216-17.728 11.216-28.288 0-22.768-18.512-41.28-41.28-41.28h-461.44c-22.768 0-41.28 18.512-41.28 41.28zM112 560h32v-320h-32zM48 208h96v-192h-96zM265.68-16c-31.76 0-62.56 8.656-89.68 24.928v209.248c27.184 33.696 68.576 53.824 112 53.824h112c0-17.648-14.336-32-31.936-32h-18.832c-24.208 0-45.952-13.472-56.896-35.44-8.784-17.616-26.464-28.56-46.144-28.56h-6.192v-32h6.192c23.2 0 44.592 9.472 60.112 25.664 18.736-17.328 29.696-41.664 29.696-67.664v-86h129.616c2.416-11.856 7.68-22.592 14.72-31.92-0.112 0-0.208-0.080-0.336-0.080zM976 32c0-26.464-21.536-48-48-48h-384c-26.464 0-48 21.536-48 48v219.456c0 81.2 31.632 157.552 89.040 214.96l61.584 61.584h178.752l61.584-61.584c57.408-57.424 89.040-133.76 89.040-214.96z" />
<glyph unicode="&#xe99f;" d="M752 366.384v33.616h-32v-32h-64v-80c0-44.112 35.888-80 80-80 26.464 0 48-21.536 48-48v-48h-48c-26.464 0-48 21.536-48 48v48h-32v-48c0-38.624 27.536-70.944 64-78.384v-33.616h32v32h64v80c0 44.112-35.888 80-80 80-26.464 0-48 21.536-48 48v48h48c26.464 0 48-21.536 48-48v-48h32v48c0 38.624-27.536 70.944-64 78.384z" />
<glyph unicode="&#xe9a0;" d="M320 688c26.464 0 48 21.536 48 48s-21.536 48-48 48-48-21.536-48-48 21.536-48 48-48zM320 752c8.816 0 16-7.184 16-16s-7.184-16-16-16-16 7.184-16 16 7.184 16 16 16z" />
<glyph unicode="&#xe9a1;" glyph-name="add" d="M1007.484 464.516h-478.968v478.968c0 9.121-7.395 16.516-16.516 16.516s-16.516-7.395-16.516-16.516v-478.968h-478.968c-9.121 0-16.516-7.395-16.516-16.516s7.395-16.516 16.516-16.516h478.968v-478.968c0-9.121 7.395-16.516 16.516-16.516s16.516 7.395 16.516 16.516v478.968h478.968c9.121 0 16.516 7.395 16.516 16.516s-7.395 16.516-16.516 16.516z" />
<glyph unicode="&#xe9a2;" d="M820.908 172.033l-1.708 0.508-43.517 12.458-58.883-44.2-58.883 44.2-45.225-12.967c-29.325-8.392-49.525-35.208-49.492-65.708v-28.842c20.267-17.258 43.358-30.883 68.267-40.275 54.917-21.167 115.75-21.167 170.667 0 5.817 2.067 11.517 4.458 17.067 7.167 18.467 8.7 35.692 19.833 51.2 33.108v28.842c0.033 30.5-20.167 57.317-49.492 65.708z" />
<glyph unicode="&#xe9a3;" d="M716.8 430.933c-47.125 0-85.333-38.208-85.333-85.333v-17.067h37.208c20.233-0.042 40.025 5.967 56.825 17.233l25.433 16.9 7.683-15.192c5.025-10.333 15.017-17.367 26.45-18.6 1.35-0.283 2.725-0.4 4.1-0.342h12.967v17.067c0 47.125-38.208 85.333-85.333 85.333z" />
<glyph unicode="&#xe9a4;" d="M733.867 942.933v-170.667l-51.2 51.2-51.2-51.2v170.667z" />
<glyph unicode="&#xe9a5;" d="M716.8 516.267c-141.383 0-256-114.617-256-256s114.617-256 256-256 256 114.617 256 256c-0.158 141.317-114.683 255.842-256 256zM648.533 49.258v57.408h-34.133v-43.025c-12.033 6.333-23.458 13.767-34.133 22.183v20.5c0.042 22.858 15.167 42.942 37.117 49.308l37.125 10.575 52.050-39.058c6.067-4.558 14.417-4.558 20.483 0l52.050 39.058 37.142-10.592c21.942-6.358 37.058-26.442 37.1-49.292v-20.583c-10.675-8.425-22.1-15.85-34.133-22.183v43.108h-34.133v-57.408c-44.358-14.475-92.175-14.475-136.533 0zM773.8 355.058l-7.592 15.217c-2.183 4.392-6.15 7.625-10.883 8.883-4.742 1.267-9.783 0.425-13.867-2.292l-25.392-16.933c-14.017-9.358-30.492-14.35-47.342-14.333h-20.192c-0.125 37.7 30.333 68.367 68.033 68.5 37.708 0.125 68.375-30.333 68.5-68.042-4.9 1.192-9.025 4.483-11.267 9zM668.725 311.467c23.592-0.025 46.65 6.967 66.267 20.067l9.35 6.233c5.375-9.483 13.675-16.967 23.658-21.333v-22.033c0-28.275-22.925-51.2-51.2-51.2s-51.2 22.925-51.2 51.2v17.067zM716.8 209.067c5.733-0.008 11.45 0.567 17.067 1.708v-18.775c0.058-4.858 2.2-9.458 5.892-12.633l-22.958-17.233-22.958 17.233c3.692 3.175 5.833 7.775 5.892 12.633v18.775c5.617-1.142 11.333-1.717 17.067-1.708zM886.525 117.658c-4.508 33.575-28.4 61.325-60.925 70.792l-57.6 16.45v21.675c21.408 15.983 34.058 41.108 34.133 67.825v17.067c9.425 0 17.067 7.642 17.067 17.067v17.067c0 56.55-45.85 102.4-102.4 102.4s-102.4-45.85-102.4-102.4v-17.067c0-9.425 7.642-17.067 17.067-17.067v-17.067c0.075-26.717 12.725-51.842 34.133-67.825v-21.675l-57.583-16.45c-32.533-9.458-56.425-37.217-60.942-70.792-75.75 89.975-68.125 223.425 17.383 304.183s219.175 80.758 304.683 0c85.508-80.758 93.133-214.208 17.383-304.183z" />
<glyph unicode="&#xe9a6;" d="M546.133 277.333h34.133v-34.133h-34.133z" />
<glyph unicode="&#xe9a7;" d="M853.333 277.333h34.133v-34.133h-34.133z" />
<glyph unicode="&#xe9a8;" d="M750.933-29.867h-614.4c-28.275 0-51.2 22.925-51.2 51.2v853.333c0 28.275 22.925 51.2 51.2 51.2h477.867v-153.6c0-6.9 4.158-13.125 10.533-15.767s13.717-1.175 18.6 3.7l39.133 39.133 39.133-39.133c4.883-4.875 12.225-6.342 18.6-3.7s10.533 8.867 10.533 15.767v153.6c28.275 0 51.2-22.925 51.2-51.2v-341.333h34.133v341.333c-0.058 47.108-38.225 85.275-85.333 85.333h-614.4c-47.108-0.058-85.275-38.225-85.333-85.333v-853.333c0.058-47.108 38.225-85.275 85.333-85.333h614.4c24.492 0 47.8 10.525 64 28.892l-25.6 22.583c-9.725-11.017-23.708-17.333-38.4-17.342zM716.8 813.467l-22.067 22.067c-6.667 6.658-17.467 6.658-24.133 0l-22.067-22.067v112.4h68.267z" />
<glyph unicode="&#xe9a9;" d="M153.6 857.6h68.267v-34.133h-68.267z" />
<glyph unicode="&#xe9aa;" d="M256 857.6h170.667v-34.133h-170.667z" />
<glyph unicode="&#xe9ab;" d="M153.6 789.333h273.067v-34.133h-273.067z" />
<glyph unicode="&#xe9ac;" d="M153.6 652.8h443.733v-34.133h-443.733z" />
<glyph unicode="&#xe9ad;" d="M631.467 652.8h102.4v-34.133h-102.4z" />
<glyph unicode="&#xe9ae;" d="M153.6 550.4h341.333v-34.133h-341.333z" />
<glyph unicode="&#xe9af;" d="M153.6 448h273.067v-34.133h-273.067z" />
<glyph unicode="&#xe9b0;" d="M153.6 345.6h238.933v-34.133h-238.933z" />
<glyph unicode="&#xe9b1;" d="M153.6 174.933h170.667v-34.133h-170.667z" />
<glyph unicode="&#xe9b2;" d="M153.6 106.667h170.667v-34.133h-170.667z" />
<glyph unicode="&#xe9b3;" d="M452.61 246.338c0-98.39-79.769-178.15-178.168-178.15s-178.168 79.76-178.168 178.15c0 98.39 79.769 178.15 178.168 178.15s178.168-79.76 178.168-178.15z" />
<glyph unicode="&#xe9b4;" d="M757.070 382.428l108.231 433.817 111.777-27.887-108.231-433.817z" />
<glyph unicode="&#xe9b5;" d="M296.228 263.172c-1.37 0.484-2.7 0.956-3.994 1.418v37.71c1.488-0.988 2.606-2.052 3.33-3.084 6.348-9.042 18.824-11.226 27.86-4.88 9.042 6.346 11.224 18.82 4.878 27.86-7.21 10.276-19.786 18.998-36.086 22.618-0.428 10.668-9.21 19.184-19.982 19.184-11.044 0-20-8.954-20-20v-0.522c-1.172-0.308-2.352-0.642-3.542-1-20.876-6.288-36.628-26.5-38.308-49.156-1.67-22.52 10.248-42.052 31.88-52.252 2.334-1.1 5.73-2.538 9.968-4.226v-47.892c-4.412 2.020-8.238 4.684-10.928 8.022-6.928 8.602-19.518 9.956-28.122 3.028-8.602-6.93-9.958-19.52-3.028-28.122 10.92-13.556 26.562-21.274 42.156-24.986 0.902-10.21 9.476-18.218 19.92-18.218 9.948 0 18.2 7.264 19.74 16.778 27.924 5.028 47.512 23.652 50.728 48.994 3.75 29.472-15.362 57.734-46.47 68.726zM250.276 290.366c0.17 2.296 0.878 4.572 1.958 6.61v-14.224c-1.528 2.186-2.174 4.714-1.958 7.614zM303.024 199.488c-0.852-6.708-5.522-10.506-10.79-12.65v33.828c8.43-6.058 11.632-14.536 10.79-21.178z" />
<glyph unicode="&#xe9b6;" d="M957.2 539.174h-21.334l87.538 350.554c1.286 5.146 0.472 10.592-2.258 15.14-2.73 4.546-7.154 7.824-12.3 9.11l-111.8 27.918c-10.718 2.676-21.574-3.842-24.25-14.558l-96.93-388.164h-709.066c-36.834 0-66.8-29.966-66.8-66.8v-452.070c0-36.834 29.966-66.8 66.8-66.8h890.4c36.834 0 66.8 29.966 66.8 66.8v452.070c0 36.834-29.966 66.8-66.8 66.8zM906.758 898.242l72.992-18.226-156.086-625.062-72.992 18.228zM765.868 162.658l-7.572 1.89-8.42 67.602 55.206-13.786zM857.622 225.85c0 0.002 68.252 273.322 68.252 273.322h31.326c14.778 0 26.8-12.022 26.8-26.8v-452.068c0-14.778-12.024-26.8-26.8-26.8h-890.4c-14.778 0-26.8 12.022-26.8 26.8v452.070c0 14.778 12.024 26.8 26.8 26.8h699.076l-33.754-135.174h-159.228c-11.044 0-20-8.954-20-20s8.956-20 20-20h149.24l-14.874-59.562h-134.366c-11.044 0-20-8.954-20-20s8.956-20 20-20h137.632l9.772-78.444c0.922-7.404 5.87-13.606 12.722-16.216l-7.78-31.156h-152.348c-11.044 0-20-8.954-20-20s8.956-20 20-20h334.83c11.044 0 20 8.954 20 20s-8.956 20-20 20h-141.254l5.36 21.464c0.834-0.106 1.668-0.158 2.498-0.158 6.408 0 12.552 3.088 16.356 8.49l63.662 90.44c0.648 1.018 1.324 2.218 1.958 3.596 0.558 1.212 0.988 2.358 1.32 3.396z" />
<glyph unicode="&#xe9b7;" d="M284.91 653.004h616.15v-162.382h-616.15z" />
<glyph unicode="&#xe9b8;" d="M289.996 406.664h104.17v-104.17h-104.17z" />
<glyph unicode="&#xe9b9;" d="M476.486 406.664h104.17v-104.17h-104.17z" />
<glyph unicode="&#xe9ba;" d="M422.1 37.22c-3.228 7.876-11.412 12.908-19.898 12.294-8.292-0.6-15.504-6.464-17.792-14.45-2.306-8.046 0.798-16.87 7.588-21.748 6.682-4.802 15.9-4.94 22.742-0.378 7.832 5.224 10.978 15.598 7.36 24.282z" />
<glyph unicode="&#xe9bb;" d="M505.55 845.064h16.81c11.044 0 20 8.954 20 20s-8.956 20-20 20h-16.81c-11.046 0-20-8.954-20-20s8.954-20 20-20z" />
<glyph unicode="&#xe9bc;" d="M284.91 845.064h136.128c11.046 0 20 8.954 20 20s-8.954 20-20 20h-136.128c-11.046 0-20-8.954-20-20s8.954-20 20-20z" />
<glyph unicode="&#xe9bd;" d="M804.634 410.664h-122.554c-11.044 0-20-8.954-20-20s8.956-20 20-20h122.552c11.044 0 20 8.954 20 20s-8.954 20-19.998 20z" />
<glyph unicode="&#xe9be;" d="M804.634 338.494h-122.554c-11.044 0-20-8.954-20-20s8.956-20 20-20h122.552c11.044 0 20 8.954 20 20s-8.954 20-19.998 20z" />
<glyph unicode="&#xe9bf;" d="M851.634 778.41h-147.302v52.348c-0.002 71.264-57.98 129.242-129.244 129.242h-342.906c-71.264 0-129.242-57.978-129.242-129.242v-765.518c0-71.264 57.978-129.242 129.242-129.242h342.906c71.264 0 129.242 57.978 129.242 129.242v129.252h147.302c38.282 0 69.426 31.144 69.426 69.426v445.066c0.002 38.28-31.144 69.426-69.424 69.426zM575.088-24h-342.906c-49.208 0-89.242 40.034-89.242 89.242v19.014h521.39v-19.014c0-49.208-40.032-89.242-89.242-89.242zM664.33 124.254h-521.39v706.504c0 49.208 40.034 89.242 89.242 89.242h342.906c49.208 0 89.242-40.034 89.242-89.242v-52.35h-359.42v7.932c0 11.046-8.954 20-20 20s-20-8.954-20-20v-597.448c0-11.046 8.954-20 20-20s20 8.954 20 20v5.6h359.42zM881.060 263.92c0-16.226-13.202-29.426-29.426-29.426h-546.724v503.916h546.722c16.224 0 29.426-13.2 29.426-29.426v-445.064z" />
<glyph unicode="&#xe9c0;" d="M353.248 158.41c-67.83 30.322-111.66 97.212-111.66 170.412v367.052c54.27 26.462 98.482 70.276 125.26 124.126h290.304c26.778-53.85 70.99-97.664 125.26-124.126v-367.052c0-73.2-43.83-140.090-111.66-170.412l-158.752-70.966z" />
<glyph unicode="&#xe9c1;" d="M902.414 808.274c-73.552 0-133.392 59.092-133.392 131.726 0 11.046-8.954 20-20 20h-474.044c-11.046 0-20-8.954-20-20 0-72.634-59.84-131.726-133.392-131.726-11.046 0-20-8.954-20-20v-459.454c0-128.34 76.356-245.4 194.526-298.224l207.724-92.856c2.596-1.162 5.38-1.742 8.162-1.742s5.566 0.58 8.162 1.742l207.724 92.856c118.17 52.824 194.526 169.884 194.526 298.224v459.454c0.004 11.046-8.952 20-19.996 20zM882.414 328.822c0-112.586-67.062-215.312-170.85-261.706l-199.564-89.208-199.562 89.208c-103.788 46.394-170.85 149.12-170.85 261.706v440.588c79.596 9.094 142.954 71.784 152.222 150.59h436.38c9.268-78.806 72.626-141.496 152.222-150.59v-440.588z" />
<glyph unicode="&#xe9c2;" d="M628.516 531.808h-14.298v31.952c0 56.362-45.854 102.216-102.216 102.216s-102.216-45.854-102.216-102.216v-31.952h-14.298c-11.046 0-20-8.954-20-20v-213.276c0-11.046 8.954-20 20-20h233.032c11.046 0 20 8.954 20 20v213.276c-0.004 11.046-8.958 20-20.004 20zM449.784 563.76c0 34.306 27.91 62.216 62.216 62.216s62.216-27.91 62.216-62.216v-31.952h-124.434v31.952zM608.516 318.534h-193.032v173.276h193.032z" />
<glyph unicode="&#xe9c3;" d="M529.15 436.772h-34.298c-11.046 0-20-8.954-20-20 0-10.076 7.458-18.388 17.15-19.774v-3.43c0-11.046 8.954-20 20-20s20 8.954 20 20v3.43c9.692 1.386 17.15 9.698 17.15 19.774-0.002 11.046-8.956 20-20.002 20z" />
<glyph unicode="&#xe9c4;" d="M906.415 69.247h-262.943c-27.182 0-49.302 22.12-49.302 49.302v65.736c0 27.182 22.12 49.302 49.302 49.302h262.943c27.182 0 49.302-22.12 49.302-49.302v-65.736c0-27.182-22.12-49.302-49.302-49.302z" />
<glyph unicode="&#xe9c5;" d="M314.792 496.529h-98.604v98.604h98.604z" />
<glyph unicode="&#xe9c6;" d="M659.906 167.85h32.868v-32.868h-32.868z" />
<glyph unicode="&#xe9c7;" d="M725.641 167.85h32.868v-32.868h-32.868z" />
<glyph unicode="&#xe9c8;" d="M791.377 167.85h32.868v-32.868h-32.868z" />
<glyph unicode="&#xe9c9;" d="M857.113 167.85h32.868v-32.868h-32.868z" />
<glyph unicode="&#xe9ca;" d="M988.585 329.166v19.458c0 117.799-95.843 213.641-213.641 213.641-76.155 0-142.943-40.165-180.774-100.313v67.445c0 18.127-14.741 32.868-32.868 32.868h-180.774v65.736c0 18.127-14.741 32.868-32.868 32.868h-164.34c-18.127 0-32.868-14.741-32.868-32.868v-164.34c0-18.127 14.741-32.868 32.868-32.868h32.868v-197.208c0-18.127 14.741-32.868 32.868-32.868h279.377v-71.586l-164.225-74.643-263.058 123.797v490.077l262.812 170.059 138.933-92.622 18.225 27.346-156.879 104.586-295.959-191.488v-528.828l295.696-139.146 164.455 74.758v-42.35l-164.34-78.275-328.679 156.533v572.444l328.679 219.114 204.997-136.665c-6.179-6.721-12.112-13.706-17.634-21.068l-19.721-26.294 26.294-19.737 19.721 26.311c46.311 61.742 120.034 98.604 197.208 98.604s150.897-36.861 197.208-98.62l19.721-26.294 26.294 19.737-19.721 26.278c-52.49 69.992-136.040 111.767-223.518 111.767-66.919 0-131.472-24.519-181.645-67.33l-229.204 152.819-346.904-231.275c-9.17-6.113-14.643-16.335-14.643-27.346v-572.444c0-12.605 7.346-24.257 18.735-29.696l342.812-163.239 164.34 78.242v-10.748c0-36.253 29.483-65.736 65.736-65.736h361.547c36.253 0 65.736 29.483 65.736 65.736v279.377c0 21.413-13.788 39.474-32.868 46.294zM774.943 529.397c99.672 0 180.774-81.102 180.774-180.774v-16.434h-32.868v16.434c0 81.562-66.36 147.906-147.906 147.906s-147.906-66.344-147.906-147.906v-16.434h-32.868v16.434c0 99.672 81.102 180.774 180.774 180.774zM889.981 332.19h-230.075v16.434c0 63.419 51.603 115.038 115.038 115.038s115.038-51.619 115.038-115.038zM561.302 365.058v-32.868h-49.302v32.868zM561.302 480.096h-49.302v49.302h49.302zM479.132 529.397v-49.302c0-18.127 14.741-32.868 32.868-32.868h49.302v-49.302h-16.434v32.868h-32.868v-32.868h-65.736v-32.868h32.868v-32.868c-18.127 0-32.868-14.741-32.868-32.868v-65.736h-65.736v98.604c0 18.127-14.741 32.868-32.868 32.868h-98.604v16.434h98.604v49.302c18.127 0 32.868 14.741 32.868 32.868v65.736zM183.321 628.001h164.34l0.016-164.34h-164.356zM314.792 430.794v-16.434h-65.736v16.434zM249.057 332.19h98.604v-98.604h-98.604zM479.132 233.586v65.736h52.326c-1.841-5.16-3.024-10.649-3.024-16.434v-49.302zM988.585 3.511c0-18.127-14.741-32.868-32.868-32.868h-361.547c-18.127 0-32.868 14.741-32.868 32.868v279.377c0 9.072 7.379 16.434 16.434 16.434h394.415c9.055 0 16.434-7.362 16.434-16.434z" />
<glyph unicode="&#xe9cb;" d="M725.641 628.001c0-27.182 22.12-49.302 49.302-49.302s49.302 22.12 49.302 49.302-22.12 49.302-49.302 49.302-49.302-22.12-49.302-49.302zM791.377 628.001c0-9.072-7.379-16.434-16.434-16.434s-16.434 7.362-16.434 16.434 7.379 16.434 16.434 16.434 16.434-7.362 16.434-16.434z" />
<glyph unicode="&#xe9cc;" d="M855.388 660.442l3.468-6.935 29.4 14.708-3.468 6.935c-20.937 41.874-63.024 67.889-109.845 67.889s-88.908-26.015-109.845-67.889l-3.468-6.935 29.4-14.708 3.468 6.935c15.333 30.666 46.163 49.713 80.444 49.713s65.095-19.031 80.444-49.713z" />
<glyph unicode="&#xe9cd;" d="M925.61 684.616l27.346 18.225-11.044 16.565c-37.305 55.941-99.721 89.368-166.969 89.368s-129.68-33.41-166.969-89.368l-11.044-16.565 27.346-18.225 11.044 16.565c31.192 46.787 83.386 74.725 139.623 74.725s108.431-27.938 139.623-74.725z" />
<glyph unicode="&#xe9ce;" d="M281.925 299.322h32.868v-32.868h-32.868z" />
<glyph unicode="&#xe9cf;" d="M364.094 381.492h32.868v-49.302h32.868v82.17h-65.736z" />
<glyph unicode="&#xe9d0;" d="M462.698 463.662h-32.868v49.302h-32.868v-82.17h65.736z" />
<glyph unicode="&#xe9d1;" d="M396.962 299.322h32.868v-49.302h-32.868z" />
<glyph unicode="&#xe9d2;" glyph-name="faq" d="M133.9 136.212v128.91c0 9.584-7.672 17.284-17.264 17.284h-84.272c-17.694 0-32.364 14.654-32.364 32.352v564.602c0 17.704 14.666 32.354 32.364 32.354h747.762c17.708 0 32.262-14.658 32.262-32.354v-564.602c0-17.69-14.558-32.354-32.262-32.354h-450.206c-3.818 0-7.534-1.266-10.56-3.592zM1024 119.108v449.004c0 12.106-10.046 22.184-22.174 22.184h-133.246v-296.984c0-36.854-30.030-66.92-66.89-66.92h-416.74v-107.282c0-12.156 10.094-22.184 22.276-22.184h357.984c3.848 0 7.504-1.242 10.556-3.59l141.748-109.050v95.356c0 9.584 7.672 17.284 17.264 17.284h67.052c12.124 0 22.17 10.074 22.17 22.182zM415.538 405.696c0 14.354-11.542 25.924-25.904 25.924h-3.566c-14.308 0-25.904-11.618-25.904-25.924 0-14.302 11.604-25.904 25.904-25.904h3.566c14.354 0 25.904 11.554 25.904 25.904zM456.564 695.204v-1.348l-0.002-0.106c-0.054-2.218-0.308-4.422-0.786-6.59-1.626-7.368-5.646-13.474-10.508-19.11-6.286-7.284-13.964-14.056-21.134-20.468-15.57-13.922-30.164-27.484-41.6-45.196-14.562-22.548-20.754-47.008-20.532-73.774 0.118-14.23 11.678-25.67 25.904-25.67 0.076 0 0.152-0.002 0.228 0 14.304 0.13 25.816 11.852 25.678 26.158-0.364 37.804 18.252 56.12 44.766 79.806 26.076 23.296 48.57 45.442 49.804 82.884l0.004 0.124 0.008 0.124c2.342 37.782-14.414 71.268-46.286 91.756-28.85 18.546-66.432 23.524-98.548 10.734-3.404-1.356-6.732-2.908-9.954-4.654-34.162-18.5-49.446-54.212-49.686-91.994-0.092-14.356 11.394-26.002 25.776-26.094h0.128c14.23 0 25.828 11.522 25.904 25.756 0.098 18.468 5.27 37.388 22.562 46.754 17.054 9.238 39.866 6.126 55.77-4.112 15.792-10.174 23.73-26.206 22.504-44.98z" />
<glyph unicode="&#xe9d3;" d="M576.16 671.52c0-35.523-28.797-64.32-64.32-64.32s-64.32 28.797-64.32 64.32c0 35.523 28.797 64.32 64.32 64.32s64.32-28.797 64.32-64.32z" />
<glyph unicode="&#xe9d4;" d="M220.16 466.88h110.56v-364.64h-110.56z" />
<glyph unicode="&#xe9d5;" d="M459.2 466.88h110.56v-364.64h-110.56z" />
<glyph unicode="&#xe9d6;" d="M707.52 466.88h110.56v-364.64h-110.56z" />
<glyph unicode="&#xe9d7;" d="M917.12 528h-808.8c-0.012 0-0.027 0-0.041 0-7.004 0-12.957 4.501-15.125 10.768l-0.034 0.112c-0.528 1.52-0.833 3.272-0.833 5.095 0 5.231 2.51 9.876 6.392 12.795l0.041 0.030 404.48 301.76c2.625 1.961 5.935 3.14 9.52 3.14s6.895-1.179 9.562-3.17l-0.042 0.030 404.48-302.24c3.923-2.949 6.433-7.594 6.433-12.825 0-1.823-0.305-3.575-0.867-5.208l0.034 0.112c-2.336-6.127-8.163-10.401-14.989-10.401-0.074 0-0.149 0.001-0.223 0.002h0.011zM156.48 560h712.48l-356.16 265.76z" />
<glyph unicode="&#xe9d8;" d="M816 93.12c-8.837 0-16 7.163-16 16v0 281.44c0 8.837 7.163 16 16 16s16-7.163 16-16v0-281.44c0-8.837-7.163-16-16-16v0z" />
<glyph unicode="&#xe9d9;" d="M707.52 93.12c-8.837 0-16 7.163-16 16v0 281.44c0 8.837 7.163 16 16 16s16-7.163 16-16v0-281.44c0-8.837-7.163-16-16-16v0z" />
<glyph unicode="&#xe9da;" d="M901.12 18.080h-776.8c-8.837 0-16 7.163-16 16v0 68.16c0 8.837 7.163 16 16 16v0h776.8c8.837 0 16-7.163 16-16v0-68.16c0-8.837-7.163-16-16-16v0zM140.32 50.080h744.8v36.16h-744.8z" />
<glyph unicode="&#xe9db;" d="M220.16 93.12c-8.837 0-16 7.163-16 16v0 281.44c0 8.837 7.163 16 16 16s16-7.163 16-16v0-281.44c0-8.837-7.163-16-16-16v0z" />
<glyph unicode="&#xe9dc;" d="M330.72 93.12c-8.837 0-16 7.163-16 16v0 281.44c0 8.837 7.163 16 16 16s16-7.163 16-16v0-281.44c0-8.837-7.163-16-16-16v0z" />
<glyph unicode="&#xe9dd;" d="M336 450.88h-124.48c-8.837 0-16 7.163-16 16s7.163 16 16 16v0h124.48c8.837 0 16-7.163 16-16s-7.163-16-16-16v0z" />
<glyph unicode="&#xe9de;" d="M459.2 93.12c-8.837 0-16 7.163-16 16v0 281.44c0 8.837 7.163 16 16 16s16-7.163 16-16v0-281.44c0-8.837-7.163-16-16-16v0z" />
<glyph unicode="&#xe9df;" d="M569.6 93.12c-8.837 0-16 7.163-16 16v0 281.44c0 8.837 7.163 16 16 16s16-7.163 16-16v0-281.44c0-8.837-7.163-16-16-16v0z" />
<glyph unicode="&#xe9e0;" d="M575.040 450.88h-124.64c-8.837 0-16 7.163-16 16s7.163 16 16 16v0h124.64c8.837 0 16-7.163 16-16s-7.163-16-16-16v0z" />
<glyph unicode="&#xe9e1;" d="M822.080 450.88h-124.48c-8.837 0-16 7.163-16 16s7.163 16 16 16v0h124.48c8.837 0 16-7.163 16-16s-7.163-16-16-16v0z" />
<glyph unicode="&#xe9e2;" d="M510.4 592c-1.060-0.051-2.302-0.080-3.552-0.080-43.564 0-78.88 35.316-78.88 78.88s35.316 78.88 78.88 78.88c1.249 0 2.492-0.029 3.727-0.086l-0.175 0.006c8.837 0 16-7.163 16-16s-7.163-16-16-16v0c-0.044 0-0.096 0-0.148 0-25.891 0-46.88-20.989-46.88-46.88s20.989-46.88 46.88-46.88c25.891 0 46.88 20.989 46.88 46.88 0 10.272-3.303 19.772-8.906 27.496l0.094-0.136c-1.883 2.597-3.012 5.846-3.012 9.36 0 8.865 7.187 16.052 16.052 16.052 5.351 0 10.091-2.619 13.008-6.645l0.032-0.047c9.218-12.745 14.744-28.687 14.744-45.92 0-43.516-35.238-78.803-78.737-78.88h-0.007z" />
<glyph unicode="&#xe9e3;" d="M508.516 316.464c-29.512 0-54.438 16.926-71.424 40.18-19.502 26.7-28.494 60.864-28.494 93.652 0 63.514 35.076 104.304 99.918 104.304 64.846 0 99.918-40.788 99.918-104.304 0-32.788-8.99-66.954-28.494-93.652-16.986-23.254-41.912-40.18-71.424-40.18zM516.708 711.68c-1.372 1.002-3.012 1.54-4.712 1.54-1.698 0-3.33-0.538-4.702-1.54l-81.68-59.56 31.42 96.068c1.074 3.286-0.104 6.938-2.906 8.966l-81.904 59.242 101.112-0.176c3.466 0 6.54 2.234 7.604 5.534l31.058 96.208 31.058-96.208c1.066-3.3 4.136-5.534 7.628-5.534l101.086 0.176-81.904-59.242c-2.802-2.028-3.982-5.68-2.906-8.964l31.432-96.072zM726.424 726.598l78.11-0.18c3.48 0 6.564 2.248 7.632 5.56l23.97 74.31 23.994-74.308c1.070-3.312 4.13-5.562 7.634-5.562l78.090 0.18-63.256-45.802c-2.806-2.032-4.018-5.666-2.938-8.966l24.3-74.23-63.092 46.034c-2.812 2.052-6.618 2.052-9.428 0l-63.074-46.022 24.254 74.214c1.076 3.292-0.102 6.938-2.908 8.968zM234.292 680.794c-2.806-2.032-3.982-5.678-2.906-8.968l24.254-74.214-63.074 46.022c-2.812 2.052-6.618 2.052-9.428 0l-63.086-46.030 24.286 74.226c1.080 3.3-0.118 6.934-2.928 8.966l-63.258 45.802 78.11-0.18c3.48 0 6.538 2.256 7.604 5.562l23.994 74.308 23.97-74.31c1.068-3.312 4.152-5.56 7.632-5.56l78.118 0.18z" />
</font>
</defs>
</svg>
